<?xml version="1.0" standalone="no"?>
<!DOCTYPE svg PUBLIC "-//W3C//DTD SVG 1.1//EN" "http://www.w3.org/Graphics/SVG/1.1/DTD/svg11.dtd" >
<svg xmlns="http://www.w3.org/2000/svg">
<metadata>Generated by IcoMoon</metadata>
<defs>
<font id="WDesignKit" horiz-adv-x="1024">
<font-face units-per-em="1024" ascent="960" descent="-64" />
<missing-glyph horiz-adv-x="1024" />
<glyph unicode="&#x20;" horiz-adv-x="512" d="" />
<glyph unicode="&#xe900;" glyph-name="check" d="M787.499 704.75c12.198 12.779 32.465 13.271 45.248 1.083 12.779-12.198 13.274-32.465 1.084-45.25l-448-469.335c-5.948-6.229-14.177-9.813-22.792-9.916-8.615-0.098-16.908 3.281-23 9.374l-149.333 149.333c-12.497 12.497-12.497 32.755 0 45.252 11.716 11.716 30.264 12.459 42.833 2.206l2.417-2.206 126.167-126.17 425.376 445.627z" />
<glyph unicode="&#xe901;" glyph-name="code-snippet" d="M906.667 533.333c0 70.649-0.043 121.14-4.169 160.25-4.062 38.539-11.776 62.347-24.747 80.875-10.705 15.286-24.009 28.588-39.292 39.291-18.53 12.974-42.338 20.688-80.875 24.75-39.113 4.122-89.604 4.167-160.252 4.167h-170.667c-70.649 0-121.14-0.044-160.25-4.167-38.539-4.062-62.347-11.776-80.875-24.75-15.286-10.704-28.588-24.006-39.291-39.291-12.974-18.528-20.688-42.336-24.75-80.875-4.122-39.11-4.167-89.601-4.167-160.25 0-70.647 0.044-121.139 4.167-160.252 4.062-38.537 11.776-62.345 24.75-80.875 10.704-15.283 24.006-28.587 39.291-39.292 18.528-12.971 42.336-20.685 80.875-24.747 39.11-4.126 89.601-4.169 160.25-4.169h170.667c70.647 0 121.139 0.043 160.252 4.169 38.537 4.062 62.345 11.776 80.875 24.747 15.283 10.705 28.587 24.009 39.292 39.292 12.971 18.53 20.685 42.338 24.747 80.875 4.126 39.113 4.169 89.604 4.169 160.252zM470.293 160c6.135-36.557-0.294-74.176-18.253-106.667h105.25c-17.958 32.486-24.384 70.106-18.249 106.667h-68.749zM524.292 671.458c5.589 16.766 23.731 25.839 40.499 20.25s25.839-23.734 20.25-40.5l-85.333-256c-5.589-16.768-23.731-25.839-40.499-20.25s-25.839 23.731-20.25 40.499l85.333 256zM320.458 642.917c13.387 11.524 33.591 10.007 45.125-3.375 11.524-13.387 10.007-33.591-3.375-45.125l-52.333-45.083c-8.456-7.288-13.969-12.267-17.833-16 3.864-3.733 9.377-8.713 17.833-16l52.333-45.082c13.382-11.537 14.899-31.74 3.375-45.129-10.815-12.544-29.25-14.66-42.542-5.372l-2.583 1.997-52.333 45.129c-10.287 8.866-20.556 17.609-27.833 25.83-7.7 8.7-16.292 21.367-16.292 38.626 0 17.26 8.591 29.926 16.292 38.625 7.278 8.222 17.546 16.966 27.833 25.833l52.333 45.125zM658.415 639.542c11.537 13.382 31.74 14.899 45.129 3.375l52.331-45.125c10.287-8.867 20.557-17.612 27.836-25.833 7.697-8.699 16.29-21.365 16.29-38.625s-8.593-29.926-16.29-38.626c-7.279-8.222-17.549-16.964-27.836-25.83l-52.331-45.129c-13.389-11.524-33.591-10.005-45.129 3.375-11.524 13.389-10.005 33.591 3.375 45.129l52.335 45.082c8.439 7.275 13.926 12.271 17.792 16-3.866 3.73-9.353 8.725-17.792 16l-52.335 45.083-2.372 2.292c-11.145 11.772-11.802 30.285-1.003 42.833zM970.667 533.333c0-69.265 0.060-123.716-4.501-166.959-4.617-43.814-14.251-79.812-35.998-110.874-14.985-21.397-33.604-40.017-55.002-55.002-31.061-21.747-67.059-31.381-110.874-35.998-41.741-4.403-93.922-4.459-159.791-4.459-9.741-34.492-0.439-72.188 25.583-98.21l8.499-8.499h86.75c17.673 0 32-14.327 32-32s-14.327-32-32-32h-426.667c-17.673 0-32 14.327-32 32s14.327 32 32 32h72.083l8.5 8.499c26.017 26.018 35.292 63.714 25.542 98.21-58.992 0.038-106.499 0.388-145.083 4.459-43.814 4.617-79.815 14.251-110.875 35.998-21.398 14.985-40.015 33.604-55 55.002-21.749 31.061-31.382 67.059-36 110.874-4.558 43.243-4.5 97.694-4.5 166.959s-0.058 123.715 4.5 166.958c4.618 43.814 14.251 79.815 36 110.875 14.985 21.398 33.602 40.015 55 55 31.060 21.749 67.062 31.382 110.875 36 43.244 4.558 97.693 4.5 166.958 4.5h170.667c69.265 0 123.716 0.058 166.959-4.5 43.814-4.618 79.812-14.251 110.874-36 21.397-14.985 40.017-33.602 55.002-55 21.747-31.060 31.381-67.062 35.998-110.875 4.561-43.244 4.501-97.693 4.501-166.958z" />
<glyph unicode="&#xe902;" glyph-name="down-arrow" d="M801.664 606.167c16.661 16.662 43.669 16.662 60.331 0 16.666-16.662 16.666-43.671 0-60.333l-320-319.999c-16.661-16.666-43.669-16.666-60.331 0l-320 319.999c-16.663 16.662-16.663 43.671 0 60.333s43.671 16.662 60.333 0l289.833-289.832 289.835 289.832z" />
<glyph unicode="&#xe903;" glyph-name="download" d="M96 473.574c0 21.743 1.466 43.153 4.333 64.084 2.399 17.51 18.574 29.774 36.084 27.375 17.497-2.407 29.726-18.542 27.333-36.044-2.474-18.061-3.75-36.582-3.75-55.415 0.009-210.513 159.515-377.583 352-377.583s351.991 167.070 352 377.583c0 14.131-0.721 28.083-2.125 41.792l-1.626 13.623-0.29 3.251c-0.567 16.205 11.217 30.535 27.622 32.792 16.422 2.249 31.654-8.392 35.46-24.167l0.623-3.209 1.877-15.793c1.626-15.863 2.458-31.987 2.458-48.29-0.009-241.903-184.341-441.583-416-441.583s-415.991 199.68-416 441.583zM480 831.991c0 17.673 14.327 32 32 32s32-14.327 32-32v-360.998c0.077 0.090 0.175 0.158 0.252 0.247 9.685 11.435 19.183 23.582 27.955 34.752 8.196 10.432 16.802 21.397 23.501 28.291 12.314 12.669 32.576 12.973 45.252 0.667 12.668-12.313 12.971-32.576 0.666-45.252-3.785-3.891-10.031-11.669-19.127-23.249-8.521-10.85-18.795-24.051-29.414-36.582-10.496-12.386-22.255-25.246-34.001-35.251-5.884-5.009-12.531-9.971-19.665-13.79-6.891-3.686-16.397-7.501-27.418-7.501s-20.527 3.814-27.418 7.501c-7.134 3.819-13.781 8.781-19.665 13.79-11.746 10.005-23.505 22.865-34.001 35.251-10.618 12.531-20.893 25.732-29.416 36.582-9.097 11.58-15.34 19.358-19.125 23.249-12.306 12.676-12.002 32.939 0.667 45.252 11.879 11.535 30.416 12.003 42.833 1.583l2.417-2.25 5.333-5.835c5.636-6.481 12.015-14.622 18.167-22.455 8.772-11.17 18.27-23.317 27.955-34.752 0.077-0.090 0.175-0.158 0.252-0.247v360.998z" />
<glyph unicode="&#xe904;" glyph-name="left-arrow" d="M662.626 726.625c-12.497 12.497-32.755 12.497-45.252 0l-225.832-225.833c-6.471-6.473-13.629-13.568-18.792-20.335-5.727-7.505-11.917-18.227-11.917-32.457s6.19-24.951 11.917-32.457c5.163-6.767 12.321-13.867 18.792-20.335l225.832-225.835c12.497-12.497 32.755-12.497 45.252 0s12.497 32.755 0 45.252l-225.835 225.83c-2.974 2.978-5.359 5.423-7.415 7.543 2.057 2.121 4.442 4.565 7.415 7.543l225.835 225.831c12.497 12.497 12.497 32.753 0 45.25z" />
<glyph unicode="&#xe905;" glyph-name="notification" d="M557.658 86.293c7.953 14.443 26.112 19.729 40.563 11.785 14.443-7.945 19.716-26.112 11.785-40.563-9.574-17.408-23.654-31.962-40.759-42.078-17.101-10.112-36.634-15.437-56.503-15.437-19.866 0-39.369 5.329-56.465 15.437-14.963 8.849-27.605 21.086-36.946 35.665l-3.811 6.413-1.322 2.722c-5.928 13.939-0.451 30.387 13.105 37.841 13.547 7.441 30.374 3.277 38.967-9.178l1.596-2.607 3.695-5.794c4.058-5.491 9.207-10.15 15.125-13.649 7.889-4.663 16.892-7.117 26.057-7.117 9.173 0 18.197 2.449 26.095 7.117 7.898 4.672 14.4 11.405 18.82 19.443zM733.709 615.339c-0.004 58.589-23.283 114.786-64.713 156.216-41.434 41.436-97.655 64.711-156.254 64.711-58.594-0.002-114.784-23.281-156.217-64.711-41.431-41.431-64.706-97.625-64.711-156.216 0-150.703-32.331-249.801-66.345-312.163-7.101-13.018-14.298-24.363-21.194-34.223h616.934c-6.895 9.86-14.059 21.21-21.158 34.223-34.014 62.362-66.342 161.455-66.342 312.163zM793.442 615.339c0-141.888 30.349-230.942 59.034-283.537 14.383-26.372 28.518-43.904 38.579-54.524 5.035-5.316 9.097-8.943 11.665-11.085 1.276-1.062 2.193-1.771 2.684-2.138 0.205-0.154 0.337-0.239 0.388-0.273h-0.038c-0.021 0.017-0.043 0.055-0.077 0.077l-0.081 0.043-0.038 0.038h-0.038c10.953-7.3 15.829-20.89 12.019-33.485-3.814-12.595-15.424-21.235-28.587-21.235h-752.42c-13.161 0-24.77 8.64-28.583 21.235-3.809 12.591 1.072 26.185 12.017 33.485h-0.039l-0.078-0.081c-0.037-0.021-0.094-0.060-0.116-0.077h-0.039c0.038 0.030 0.198 0.102 0.428 0.273 0.493 0.367 1.405 1.075 2.683 2.138 2.568 2.142 6.593 5.769 11.628 11.085 10.060 10.62 24.192 28.147 38.577 54.524 28.687 52.595 59.072 141.641 59.072 283.537 0.005 74.434 29.578 145.816 82.211 198.45 52.635 52.632 124.014 82.209 198.45 82.211 74.441 0 145.852-29.574 198.49-82.211 52.629-52.633 82.206-124.019 82.21-198.45z" />
<glyph unicode="&#xe906;" glyph-name="right-arrow" d="M361.373 726.625c12.497 12.497 32.753 12.497 45.25 0l225.834-225.833c6.468-6.473 13.628-13.568 18.79-20.335 5.726-7.505 11.917-18.227 11.917-32.457s-6.191-24.951-11.917-32.457c-5.163-6.767-12.322-13.867-18.79-20.335l-225.834-225.835c-12.497-12.497-32.753-12.497-45.25 0s-12.497 32.755 0 45.252l225.832 225.83c2.978 2.978 5.363 5.423 7.42 7.543-2.057 2.121-4.442 4.565-7.42 7.543l-225.832 225.831c-12.497 12.497-12.497 32.753 0 45.25z" />
<glyph unicode="&#xe907;" glyph-name="round-check" d="M906.667 448c0-217.967-176.7-394.667-394.667-394.667s-394.667 176.7-394.667 394.667c0 217.968 176.698 394.667 394.667 394.667 217.967 0 394.667-176.698 394.667-394.667zM970.667 448c0 253.315-205.35 458.667-458.667 458.667-253.315 0-458.667-205.352-458.667-458.667 0-253.316 205.352-458.667 458.667-458.667 253.316 0 458.667 205.35 458.667 458.667zM659.085 597.625c11.942 13.024 32.179 13.899 45.205 1.958 13.026-11.942 13.901-32.182 1.958-45.208l-234.667-255.998c-5.892-6.43-14.153-10.185-22.874-10.377-8.725-0.188-17.161 3.204-23.333 9.374l-106.667 106.667c-12.497 12.497-12.497 32.755 0 45.252 11.716 11.716 30.264 12.459 42.833 2.206l2.417-2.206 83.001-82.999 212.126 231.332z" />
<glyph unicode="&#xe908;" glyph-name="templates" d="M885.333 448c0 35.529-0.137 67.349-0.499 96h-468.834v-468.791c28.651-0.367 60.471-0.542 96-0.542 96.448 0 165.564 0.060 218.125 7.125 51.644 6.942 82.513 20.096 105.25 42.833s35.891 53.602 42.833 105.25c7.066 52.565 7.125 121.69 7.125 218.125zM640 266.667c17.673 0 32-14.327 32-32s-14.327-32-32-32h-85.333c-17.673 0-32 14.327-32 32s14.327 32 32 32h85.333zM725.333 437.333c17.673 0 32-14.327 32-32s-14.327-32-32-32h-170.667c-17.673 0-32 14.327-32 32s14.327 32 32 32h170.667zM512 821.333c-96.449 0-165.565-0.061-218.125-7.125-51.642-6.942-82.513-20.096-105.25-42.833-22.736-22.735-35.891-53.602-42.833-105.25-2.342-17.423-3.818-36.673-4.875-58.125h742.168c-1.058 21.454-2.534 40.702-4.877 58.125-6.942 51.642-20.096 82.513-42.833 105.25s-53.602 35.891-105.25 42.833c-52.565 7.066-121.69 7.125-218.125 7.125zM299.042 736c17.673 0 32-14.327 32-32s-14.327-32-32-32h-0.375c-17.673 0-32 14.327-32 32s14.327 32 32 32h0.375zM469.709 736c17.673 0 32-14.327 32-32s-14.327-32-32-32h-0.375c-17.673 0-32 14.327-32 32s14.327 32 32 32h0.375zM138.667 448c0-96.448 0.061-165.564 7.125-218.125 6.942-51.644 20.096-82.513 42.833-105.25 22.735-22.737 53.602-35.891 105.25-42.833 17.423-2.342 36.673-3.819 58.125-4.877v467.085h-212.833c-0.365-28.651-0.5-60.471-0.5-96zM949.333 448c0-94.626 0.064-168.845-7.71-226.667-7.893-58.731-24.388-105.348-61.001-141.956-36.608-36.612-83.221-53.107-141.956-61.001-57.818-7.774-132.019-7.71-226.667-7.71-44.71 0-84.86 0.073-120.875 0.875-2.296-0.525-4.67-0.875-7.125-0.875-2.929 0-5.722 0.555-8.417 1.293-33.777 1.028-63.745 2.854-90.25 6.417-58.73 7.893-105.349 24.388-141.958 61.001-36.611 36.608-53.104 83.221-61 141.956-7.772 57.818-7.708 132.019-7.708 226.667 0 44.71 0.071 84.86 0.875 120.875-0.524 2.296-0.875 4.67-0.875 7.125 0 2.929 0.555 5.722 1.292 8.417 1.030 33.777 2.854 63.745 6.417 90.25 7.896 58.73 24.391 105.349 61 141.958 36.611 36.611 83.223 53.104 141.958 61 57.817 7.772 132.019 7.708 226.667 7.708 94.626 0 168.845 0.064 226.667-7.708 58.731-7.896 105.348-24.391 141.956-61 36.612-36.611 53.107-83.223 61.001-141.958 3.563-26.507 5.389-56.464 6.417-90.25 0.738-2.695 1.293-5.488 1.293-8.417 0-2.455-0.35-4.829-0.875-7.125 0.802-36.015 0.875-76.16 0.875-120.875z" />
<glyph unicode="&#xe909;" glyph-name="up-arrow" d="M801.664 225.835c16.661-16.666 43.669-16.666 60.331 0 16.666 16.661 16.666 43.669 0 60.331l-320 320.001c-16.661 16.663-43.669 16.663-60.331 0l-320-320.001c-16.663-16.661-16.663-43.669 0-60.331 16.662-16.666 43.671-16.666 60.333 0l289.833 289.83 289.835-289.83z" />
<glyph unicode="&#xe90a;" glyph-name="widgets" d="M906.667 106.667c0 29.457-23.876 53.333-53.333 53.333s-53.333-23.876-53.333-53.333c0-29.457 23.876-53.333 53.333-53.333s53.333 23.876 53.333 53.333zM283.458 757.333c-11.056-39.046-41.748-69.69-80.791-80.75v-457.123c39.049-11.059 69.735-41.745 80.791-80.794h457.082c11.059 39.049 41.745 69.734 80.794 80.794v457.123c-39.044 11.060-69.734 41.705-80.794 80.75h-457.082zM704 416c17.673 0 32-14.327 32-32 0-27.934-20.796-45.013-36.292-55.292-16.836-11.166-41.165-22.967-69.581-36.877l-46.46-22.75c-25.323-12.39-46.861-23.748-71.667-23.748s-46.345 11.358-71.667 23.748l-46.458 22.75c-28.419 13.909-52.749 25.711-69.583 36.877-15.496 10.278-36.292 27.358-36.292 55.292 0 17.673 14.327 32 32 32 16.215 0 29.567-12.066 31.667-27.708 1.164-1.139 3.488-3.255 8-6.251 12.477-8.277 32.132-17.971 62.333-32.751l46.459-22.707c30.524-14.938 36.907-17.25 43.541-17.25s13.018 2.313 43.541 17.25l46.46 22.707c30.199 14.78 49.856 24.474 62.332 32.751 4.484 2.974 6.788 5.107 7.957 6.251 2.099 15.642 15.492 27.708 31.71 27.708zM512 650.667c24.806 0 46.345-11.358 71.667-23.75l46.46-22.75c28.416-13.908 52.745-25.708 69.581-36.875 15.497-10.279 36.292-27.359 36.292-55.292 0-27.934-20.796-45.013-36.292-55.292-16.836-11.166-41.165-22.967-69.581-36.877l-46.46-22.75c-25.323-12.39-46.861-23.748-71.667-23.748s-46.345 11.358-71.667 23.748l-46.458 22.75c-28.419 13.909-52.749 25.711-69.583 36.877-15.496 10.278-36.292 27.358-36.292 55.292s20.796 45.012 36.292 55.292c16.835 11.167 41.164 22.967 69.583 36.875l46.458 22.75c25.323 12.392 46.861 23.75 71.667 23.75zM512 586.667c-6.635 0-13.018-2.312-43.541-17.25l-46.459-22.708c-30.201-14.779-49.856-24.473-62.333-32.75-1.001-0.666-1.824-1.387-2.625-1.958 0.801-0.572 1.625-1.293 2.625-1.958 12.477-8.277 32.132-17.971 62.333-32.751l46.459-22.707c30.524-14.938 36.907-17.25 43.541-17.25s13.018 2.313 43.541 17.25l46.46 22.707c30.199 14.78 49.856 24.474 62.332 32.751 0.99 0.657 1.788 1.391 2.586 1.958-0.798 0.567-1.596 1.301-2.586 1.958-12.476 8.277-32.132 17.971-62.332 32.75l-46.46 22.708c-30.524 14.938-36.907 17.25-43.541 17.25zM117.333 106.667c0-29.457 23.878-53.333 53.333-53.333s53.333 23.876 53.333 53.333c0 29.457-23.878 53.333-53.333 53.333s-53.333-23.876-53.333-53.333zM906.667 789.333c0 29.455-23.876 53.333-53.333 53.333s-53.333-23.878-53.333-53.333c0-29.455 23.876-53.333 53.333-53.333s53.333 23.878 53.333 53.333zM117.333 789.333c0-29.455 23.878-53.333 53.333-53.333s53.333 23.878 53.333 53.333c0 29.455-23.878 53.333-53.333 53.333s-53.333-23.878-53.333-53.333zM970.667 789.333c0-53.692-36.109-98.807-85.333-112.75v-457.123c49.233-13.943 85.333-59.098 85.333-112.794 0-64.802-52.531-117.333-117.333-117.333-53.696 0-98.85 36.1-112.794 85.333h-457.082c-13.94-49.233-59.095-85.333-112.791-85.333-64.801 0-117.333 52.531-117.333 117.333 0 53.696 36.102 98.85 85.333 112.794v457.123c-49.226 13.943-85.333 59.058-85.333 112.75 0 64.801 52.532 117.333 117.333 117.333 53.696 0 98.852-36.102 112.791-85.333h457.082c13.943 49.231 59.098 85.333 112.794 85.333 64.802 0 117.333-52.532 117.333-117.333z" />
<glyph unicode="&#xe90b;" glyph-name="workspace" d="M565.291 196.25v112c0 18.931-0.034 34.85 0.917 47.876 0.973 13.338 3.081 26.159 8.627 38.541 10.735 23.974 29.76 43.294 53.623 54.251 12.361 5.675 25.165 7.799 38.417 8.789 12.919 0.969 28.689 0.96 47.373 0.96 23.744 0 40.371 0.175 56.418-3.332 17.173-3.759 33.515-10.633 48.252-20.25 13.751-8.977 25.365-20.954 42.163-37.961l55.876-56.585c20.113-20.361 36.77-36.454 45.5-57.792 8.708-21.286 8.166-44.493 8.166-73.289v-13.21c0-35.298 0.081-64.956-3.042-88.457-3.238-24.393-10.441-46.929-28.416-65.126-18.027-18.249-40.435-25.57-64.708-28.877-23.313-3.17-52.702-3.123-87.539-3.123h-37.918c-34.837 0-64.226-0.047-87.543 3.123-24.273 3.307-46.682 10.628-64.708 28.877-17.971 18.197-25.178 40.734-28.416 65.126-3.119 23.501-3.042 53.158-3.042 88.457zM53.292 512v130.374c0 38.173-0.013 68.886 2.167 93.625 2.218 25.16 6.905 47.184 18.125 67.292 14.459 25.909 35.841 47.291 61.75 61.75 20.107 11.22 42.132 15.907 67.291 18.125 24.74 2.18 55.452 2.167 93.625 2.167 47.133 0 78.996 0.506 107.459-10.167 63.594-23.85 89.057-82.572 109.832-124.125l18.21-36.375h182.874c44.267 0 79.876 0.023 108.378-2.875 29.030-2.953 54.225-9.205 76.497-24.083 17.472-11.673 32.495-26.696 44.169-44.167 22.865-34.232 26.257-70.606 26.833-127.249l0.124-25.583-0.166-3.251c-1.604-16.141-15.219-28.762-31.791-28.791-16.563-0.030-30.204 12.535-31.876 28.668l-0.166 3.29-0.209 26.21c-0.777 55.619-4.228 73.608-15.957 91.165-7.002 10.482-16.017 19.496-26.5 26.5-10.005 6.685-23.445 11.186-47.415 13.625-24.512 2.493-56.307 2.542-101.918 2.542h-415.999c-17.673 0-32 14.327-32 32s14.327 32 32 32h161.544l-3.878 7.75c-23.996 47.999-39.45 79.43-75.082 92.791-15 5.623-32.8 6.125-84.958 6.125-39.313 0-66.723-0.043-88-1.917-20.858-1.839-32.782-5.245-41.75-10.25-15.541-8.674-28.367-21.501-37.041-37.041-5.005-8.969-8.411-20.892-10.25-41.75-1.874-21.277-1.917-48.687-1.917-88v-130.374c0-101.47 0.084-174.37 7.542-229.833 7.334-54.537 21.28-87.407 45.583-111.71 21.631-21.632 49.996-35.017 94.167-42.876 45.088-8.021 103.581-9.813 183.502-10.167h21.205c17.673 0 32-14.323 32-32 0-17.668-14.327-32-32-32h-21.457c-79.277 0.35-143.138 2.039-194.458 11.17-52.247 9.293-94.368 26.782-128.209 60.625-38.179 38.178-55.504 86.814-63.791 148.454-8.162 60.723-8.084 138.684-8.084 238.336zM629.291 196.25c0-37.090 0.068-61.726 2.5-80.043 2.317-17.434 6.259-24.243 10.5-28.54 4.19-4.241 10.756-8.183 27.793-10.5 17.993-2.449 42.244-2.5 78.916-2.5h37.918c36.668 0 60.919 0.051 78.916 2.5 17.033 2.317 23.603 6.259 27.789 10.5 4.245 4.297 8.188 11.106 10.5 28.54 2.432 18.317 2.5 42.953 2.5 80.043v13.21c0 33.963-0.538 42.15-3.375 49.084-2.82 6.886-8.102 13.013-31.834 37.039l-55.872 56.585c-18.731 18.965-24.913 24.977-31.586 29.333-8.252 5.389-17.395 9.199-26.957 11.29-7.714 1.69-16.235 1.877-42.752 1.877-19.631 0-32.606-0.004-42.581-0.751-9.647-0.721-13.935-1.988-16.499-3.166-9.638-4.425-17.468-12.309-21.918-22.251-1.225-2.735-2.492-7.206-3.209-17.041-0.742-10.155-0.751-23.343-0.751-43.209v-112z" />
<glyph unicode="&#xe90c;" glyph-name="alert" d="M442.116 874.042c45.41 15.068 94.345 15.068 139.75 0 45.231-15.013 80.742-50.641 116.42-100.666 35.789-50.187 75.375-120.286 126.498-210.75 51.127-90.473 90.773-160.548 115.418-217.291 24.602-56.653 36.86-105.591 27.081-152.585-9.843-47.305-34.112-90.317-69.457-122.833-35.264-32.439-83.29-46.135-143.748-52.71-60.535-6.579-139.857-6.541-242.086-6.541-102.225 0-181.548-0.038-242.082 6.541-60.46 6.575-108.485 20.271-143.75 52.71-35.343 32.516-59.613 75.529-69.458 122.833-9.777 46.993 2.48 95.932 27.084 152.585 24.644 56.742 64.287 126.818 115.417 217.291 51.124 90.464 90.711 160.563 126.5 210.75 35.675 50.026 71.189 85.654 116.415 100.666zM561.702 813.293c-32.316 10.722-67.102 10.722-99.418 0-25.429-8.441-51.020-30.135-84.5-77.083-33.362-46.786-71.027-113.34-122.875-205.082-51.848-91.746-89.43-158.366-112.416-211.294-23.026-53.018-28.794-86.793-23.125-114.039 7.153-34.368 24.734-65.438 50.125-88.794 19.942-18.342 51.020-30.042 107.333-36.164 56.253-6.118 131.427-6.17 235.165-6.17 103.74 0 178.914 0.051 235.17 6.17 56.311 6.123 87.39 17.822 107.332 36.164 25.391 23.356 42.974 54.426 50.125 88.794 5.67 27.247-0.098 61.022-23.125 114.039-22.985 52.928-60.57 119.548-112.418 211.294-51.849 91.742-89.51 158.296-122.871 205.082-33.481 46.948-59.072 68.642-84.501 77.083zM512.034 309.333c17.673 0 32-14.327 32-32s-14.327-32-32-32h-0.375c-17.673 0-32 14.327-32 32s14.327 32 32 32h0.375zM479.991 405.333v170.668c0 17.673 14.327 32 32 32 17.677 0 32-14.327 32-32v-170.668c0-17.673-14.323-32-32-32-17.673 0-32 14.327-32 32z" />
<glyph unicode="&#xe90d;" glyph-name="convertor" d="M864 448c0 17.673 14.327 32 32 32s32-14.327 32-32c0-180.774-133.559-309.333-309.333-309.333h-418.083l55.709-51.085c13.024-11.942 13.901-32.183 1.958-45.205-11.203-12.215-29.708-13.756-42.708-4.045l-2.5 2.086-83.416 76.497c-7.067 6.481-14.83 13.495-20.417 20.211-5.325 6.4-11.423 15.701-12.875 28.041l-0.333 5.5 0.333 5.5c1.452 12.339 7.55 21.641 12.875 28.041 5.587 6.716 13.35 13.73 20.417 20.211l83.416 76.497c13.025 11.947 33.264 11.068 45.208-1.958 11.943-13.022 11.066-33.263-1.958-45.205l-55.709-51.085h418.083c141.094 0 245.333 100.565 245.333 245.333zM96 448c0 180.777 133.56 309.333 309.333 309.333h418.082l-55.706 51.084-2.291 2.333c-10.79 12.114-10.867 30.662 0.333 42.875 11.2 12.215 29.705 13.753 42.705 4.041l2.5-2.083 83.418-76.5c7.066-6.481 14.831-13.493 20.416-20.209 6.093-7.32 13.21-18.429 13.21-33.542s-7.117-26.221-13.21-33.542c-5.585-6.715-13.35-13.727-20.416-20.208l-83.418-76.5c-13.022-11.943-33.263-11.066-45.205 1.958-11.947 13.024-11.068 33.263 1.958 45.208l55.706 51.083h-418.082c-141.093 0-245.333-100.566-245.333-245.333 0-17.673-14.327-32-32-32s-32 14.327-32 32z" />
<glyph unicode="&#xe90e;" glyph-name="copy" d="M906.581 362.581c-0.222 39.356-1.084 69.419-4.331 93.585-4.211 31.309-11.9 47.902-23.71 59.708-11.806 11.81-28.399 19.5-59.708 23.709-24.166 3.248-54.229 4.111-93.585 4.334l-85.248 0.083c-61.235 0-103.94-0.086-136.166-4.417-31.309-4.209-47.902-11.899-59.708-23.709-11.81-11.806-19.5-28.399-23.709-59.708-4.331-32.226-4.417-74.931-4.417-136.166v-42.667l0.083-42.581c0.222-39.356 1.086-69.419 4.334-93.585 4.209-31.309 11.899-47.902 23.709-59.708 11.806-11.81 28.399-19.499 59.708-23.71 32.226-4.331 74.931-4.416 136.166-4.416h42.667c61.235 0 103.94 0.085 136.166 4.416 31.309 4.211 47.902 11.9 59.708 23.71 11.81 11.806 19.499 28.399 23.71 59.708 3.247 24.166 4.109 54.229 4.331 93.585l0.085 42.581v42.667l-0.085 42.581zM970.667 277.333l-0.085-42.415c-0.213-40.269-1.092-74.18-4.873-102.293-5.163-38.404-16.235-70.733-41.916-96.418-25.681-25.681-58.014-36.753-96.418-41.916-28.113-3.78-62.025-4.659-102.293-4.873l-42.415-0.085h-42.667c-59.43 0-107.226-0.081-144.708 4.958-38.404 5.163-70.735 16.235-96.417 41.916-25.681 25.685-36.753 58.014-41.917 96.418-2.729 20.305-3.903 43.639-4.458 70.208-48.184 0.269-88.217 1.271-121.458 5.751-40.934 5.517-74.962 16.559-103.625 40.081-10.257 8.418-19.665 17.826-28.083 28.083-24.823 30.246-35.717 66.475-40.917 110.46-5.116 43.281-5.083 98.108-5.083 167.458s-0.033 124.177 5.083 167.458c5.2 43.986 16.093 80.211 40.917 110.458 8.419 10.257 17.826 19.665 28.083 28.083 30.247 24.823 66.472 35.717 110.458 40.917 43.281 5.116 98.109 5.083 167.458 5.083s124.177 0.033 167.458-5.083c43.985-5.2 80.209-16.093 110.46-40.917 10.257-8.419 19.665-17.826 28.083-28.083 23.522-28.663 34.564-62.691 40.081-103.625 4.48-33.241 5.483-73.274 5.751-121.458 26.569-0.555 49.903-1.729 70.208-4.458 38.404-5.164 70.737-16.235 96.418-41.917s36.753-58.013 41.916-96.417c5.039-37.483 4.958-85.278 4.958-144.708v-42.667zM117.333 554.667c0-70.916 0.056-121.306 4.625-159.957 4.484-37.926 12.927-60.382 26.833-77.333 5.763-7.023 12.229-13.487 19.25-19.251 16.079-13.188 37.129-21.483 71.583-26.125 28.97-3.904 65.019-4.885 112.375-5.167v53.167c0 59.43-0.080 107.226 4.958 144.708 5.164 38.404 16.235 70.735 41.917 96.417s58.013 36.753 96.417 41.917c37.483 5.039 85.278 4.958 144.708 4.958h53.167c-0.282 47.356-1.263 83.405-5.167 112.375-4.642 34.454-12.932 55.504-26.125 71.583-5.764 7.022-12.228 13.488-19.251 19.25-16.951 13.906-39.407 22.349-77.333 26.833-38.652 4.569-89.041 4.625-159.957 4.625s-121.306-0.056-159.958-4.625c-37.926-4.484-60.381-12.927-77.333-26.833-7.021-5.763-13.488-12.229-19.25-19.25-13.906-16.952-22.349-39.408-26.833-77.333-4.569-38.652-4.625-89.041-4.625-159.958z" />
<glyph unicode="&#xe90f;" glyph-name="credit" d="M906.667 222.874c-12.177-5.692-25.609-10.748-39.834-15.125-53.999-16.61-126.643-26.415-205.5-26.415s-151.501 9.805-205.5 26.415c-14.225 4.378-27.657 9.434-39.834 15.125v-107.665c0 0-0.005-0.124 0.083-0.418 0.097-0.32 0.324-0.977 0.917-1.958 1.257-2.078 3.878-5.231 8.791-9.165 10.027-8.026 26.509-16.691 49.707-24.542 46.080-15.595 111.782-25.792 185.835-25.792s139.755 10.197 185.835 25.792c23.198 7.851 39.68 16.516 49.707 24.542 4.915 3.934 7.535 7.087 8.794 9.165 0.593 0.981 0.819 1.638 0.913 1.958 0.090 0.294 0.085 0.418 0.085 0.418v107.665zM906.667 414.874c-12.177-5.692-25.609-10.748-39.834-15.125-53.999-16.61-126.643-26.415-205.5-26.415s-151.501 9.805-205.5 26.415c-14.225 4.378-27.657 9.434-39.834 15.125v-115.123c0.467-0.917 2.308-3.823 8.625-8.418 10.042-7.305 26.626-15.223 49.999-22.417 46.374-14.268 112.405-23.582 186.709-23.582s140.335 9.314 186.709 23.582c23.373 7.194 39.957 15.113 50.001 22.417 6.315 4.595 8.158 7.501 8.623 8.418v115.123zM661.333 544c-74.304 0-140.335-9.314-186.709-23.582-23.373-7.194-39.957-15.113-49.999-22.417-4.687-3.409-6.883-5.909-7.917-7.334 1.034-1.425 3.23-3.925 7.917-7.334 10.042-7.305 26.626-15.223 49.999-22.417 46.374-14.268 112.405-23.582 186.709-23.582s140.335 9.314 186.709 23.582c23.373 7.194 39.957 15.113 50.001 22.417 4.663 3.396 6.831 5.909 7.872 7.334-1.041 1.425-3.209 3.938-7.872 7.334-10.044 7.305-26.628 15.223-50.001 22.417-46.374 14.268-112.405 23.582-186.709 23.582zM608 704v9.542c-12.177-5.693-25.609-10.748-39.834-15.125-53.999-16.613-126.643-26.417-205.5-26.417s-151.501 9.804-205.5 26.417c-14.226 4.377-27.656 9.432-39.833 15.125v-131.542c5.094-11.335 17.661-23.542 42.167-34.625 23.19-10.488 53.028-18.103 86.042-23.002l14.333-1.958 3.209-0.542c15.825-3.571 26.668-18.633 24.666-35.081-2.14-17.54-18.085-30.012-35.625-27.874-42.029 5.116-84.296 14.468-119 30.165-5.345 2.419-10.602 5.133-15.792 8v-128.418c5.094-11.332 17.661-23.539 42.167-34.624 23.19-10.487 53.028-18.103 86.042-23.002l14.333-1.958 3.209-0.542c15.825-3.571 26.668-18.633 24.666-35.081-2.14-17.54-18.085-30.012-35.625-27.874-42.029 5.116-84.296 14.468-119 30.165-5.345 2.419-10.602 5.133-15.792 8v-128.418c5.094-11.332 17.661-23.539 42.167-34.624 23.19-10.487 53.028-18.103 86.042-23.002l14.333-1.958 3.209-0.542c15.825-3.571 26.668-18.633 24.666-35.081-2.14-17.54-18.085-30.012-35.625-27.874-42.029 5.116-84.296 14.468-119 30.165-34.045 15.398-66.436 39.522-78.333 77.291l-1.458 4.71v644.915c0 26.92 17.64 46.482 34.959 59.084 18.022 13.111 42.071 23.586 68.875 31.833 53.999 16.613 126.644 26.417 205.5 26.417s151.501-9.804 205.5-26.417c26.803-8.247 50.854-18.723 68.877-31.833 17.318-12.602 34.957-32.163 34.957-59.084v-85.333c0-17.673-14.327-32-32-32s-32 14.327-32 32zM362.667 842.667c-74.306 0-140.334-9.314-186.708-23.583-23.374-7.194-39.957-15.111-50-22.417-4.687-3.409-6.883-5.91-7.917-7.334 1.034-1.423 3.23-3.924 7.917-7.334 10.043-7.305 26.626-15.223 50-22.417 46.375-14.269 112.403-23.583 186.708-23.583s140.335 9.314 186.709 23.583c23.373 7.194 39.957 15.111 50.001 22.417 4.663 3.394 6.831 5.907 7.872 7.334-1.041 1.427-3.209 3.94-7.872 7.334-10.044 7.305-26.628 15.223-50.001 22.417-46.374 14.269-112.405 23.583-186.709 23.583zM970.667 115.209c0-26.756-16.060-47.351-33.792-61.542-18.039-14.434-42.18-26.031-69.167-35.166-54.298-18.377-127.266-29.167-206.374-29.167s-152.077 10.79-206.374 29.167c-26.987 9.135-51.127 20.732-69.167 35.166-17.734 14.191-33.792 34.786-33.792 61.542v375.458c0 26.918 17.64 46.482 34.959 59.084 18.022 13.111 42.072 23.586 68.875 31.833 53.999 16.613 126.643 26.417 205.5 26.417s151.501-9.804 205.5-26.417c26.803-8.247 50.854-18.723 68.877-31.833 17.318-12.602 34.957-32.165 34.957-59.084v-375.458z" />
<glyph unicode="&#xe910;" glyph-name="dark-mode" d="M348.5 681.625c0.002 41.551 6.388 81.647 18.25 119.333-134.207-58.26-228.082-191.944-228.083-347.54 0-209.178 169.574-378.752 378.752-378.752 155.605 0 289.242 93.909 347.499 228.126-37.679-11.857-77.751-18.291-119.292-18.291-219.319 0-397.126 177.805-397.126 397.124zM412.5 681.625c0-183.97 149.155-333.124 333.126-333.124 56.683 0 109.969 14.131 156.625 39.040 11.081 5.918 24.619 4.821 34.581-2.833 9.958-7.654 14.524-20.437 11.669-32.666-45.854-195.644-221.419-341.376-431.083-341.376-244.524 0-442.752 198.229-442.752 442.752 0.001 209.663 145.731 385.229 341.375 431.081 12.229 2.857 25.012-1.709 32.666-11.667 7.654-9.963 8.751-23.5 2.833-34.583-24.908-46.654-39.038-99.942-39.041-156.625z" />
<glyph unicode="&#xe911;" glyph-name="design" d="M736 21.333v354.377c0 68.582-0.29 96.64-7.876 122.748-7.569 26.057-22.217 49.497-58.748 106.584l-113.335 177.125c-16.614 25.967-27.226 42.355-36.207 52.708-4.023 4.638-6.541 6.635-7.834 7.459-1.293-0.823-3.81-2.821-7.834-7.459-8.981-10.353-19.593-26.741-36.207-52.708l-113.334-177.125c-36.53-57.087-51.178-80.527-58.75-106.584-7.584-26.108-7.875-54.165-7.875-122.748v-354.377c0-17.673-14.327-32-32-32s-32 14.327-32 32v354.377c0 64.994-0.3 103.744 10.417 140.625 10.735 36.938 31.687 69.129 66.292 123.207l113.333 177.083c15.487 24.204 28.97 45.473 41.748 60.208 13.065 15.059 30.882 29.833 56.209 29.833s43.145-14.775 56.209-29.833c12.783-14.735 26.261-36.004 41.749-60.208l113.335-177.083c34.603-54.077 55.556-86.269 66.291-123.207 10.714-36.881 10.415-75.631 10.415-140.625v-354.377c0-17.673-14.327-32-32-32s-32 14.327-32 32zM710.75 519.168c15.735 8.047 35.034 1.813 43.085-13.918 8.047-15.731 1.813-35.034-13.918-43.085-5.73-2.931-12.198-6.729-20.164-11.413-7.65-4.501-16.478-9.651-25.626-14.46-17.664-9.284-40.606-19.452-65.041-20.25-31.206-1.020-56.482 12.493-73.792 21.414-19.473 10.039-30.737 15.334-43.294 15.334s-23.821-5.295-43.29-15.334c-17.31-8.922-42.59-22.434-73.793-21.414-24.437 0.798-47.377 10.965-65.041 20.25-9.151 4.809-17.978 9.958-25.625 14.46l-20.167 11.413-2.833 1.668c-13.61 8.811-18.627 26.671-11.084 41.417 7.546 14.746 24.973 21.137 40.083 15.249l3-1.331 11.791-6.46c3.962-2.261 7.902-4.578 11.667-6.793 7.839-4.608 15.34-9.015 22.917-13.001 15.799-8.303 28.047-12.57 37.375-12.873 12.248-0.401 23.378 4.476 42.415 14.289 16.883 8.704 41.92 22.46 72.585 22.46s55.706-13.756 72.585-22.46c19.038-9.813 30.17-14.69 42.415-14.289 9.331 0.303 21.577 4.57 37.376 12.873 7.578 3.985 15.078 8.393 22.916 13.001 7.522 4.425 15.718 9.289 23.458 13.252zM480 21.333v426.667c0 17.673 14.327 32 32 32s32-14.327 32-32v-426.667c0-17.673-14.327-32-32-32s-32 14.327-32 32zM597.333 778.667c17.673 0 32-14.327 32-32s-14.327-32-32-32h-170.667c-17.672 0-31.999 14.327-31.999 32s14.327 32 31.999 32h170.667z" />
<glyph unicode="&#xe912;" glyph-name="drop-image" d="M190.813 609.621c0 88.139 71.45 159.587 159.586 159.587h323.214c88.137 0 159.586-71.448 159.586-159.587v-323.213c0-88.141-71.45-159.59-159.586-159.59h-323.214c-88.137 0-159.586 71.45-159.586 159.59v323.213zM350.399 719.379c-60.617 0-109.758-49.139-109.758-109.758v-323.213c0-60.621 49.141-109.76 109.758-109.76h323.214c60.617 0 109.76 49.139 109.76 109.76v323.213c0 60.619-49.143 109.758-109.76 109.758h-323.214zM448.926 892.419c0 13.76 11.157 24.914 24.917 24.914h76.314c13.76 0 24.913-11.155 24.913-24.914s-11.153-24.914-24.913-24.914h-76.314c-13.76 0-24.917 11.154-24.917 24.914zM171.633 863.082c8.384-10.91 6.336-26.552-4.574-34.936-13.21-10.152-25.055-21.996-35.206-35.206-8.384-10.911-24.026-12.958-34.936-4.574s-12.958 24.026-4.574 34.936c12.79 16.644 27.71 31.564 44.354 44.354 10.91 8.384 26.552 6.336 34.936-4.574zM852.369 863.082c8.38 10.911 24.021 12.958 34.931 4.574 16.644-12.79 31.565-27.71 44.356-44.354 8.384-10.911 6.336-26.552-4.574-34.936s-26.551-6.336-34.935 4.574c-10.155 13.21-21.999 25.054-35.204 35.206-10.914 8.384-12.962 24.026-4.574 34.936zM956.416 511.070c13.764 0 24.917-11.153 24.917-24.913v-76.314c0-13.76-11.153-24.917-24.917-24.917-13.76 0-24.913 11.157-24.913 24.917v76.314c0 13.76 11.153 24.913 24.913 24.913zM67.581 511.070c13.76 0 24.914-11.153 24.914-24.913v-76.314c0-13.76-11.155-24.917-24.914-24.917s-24.914 11.157-24.914 24.917v76.314c0 13.76 11.154 24.913 24.914 24.913zM96.917 107.631c10.911 8.384 26.552 6.336 34.936-4.574 10.151-13.21 21.996-25.054 35.206-35.204 10.91-8.384 12.958-24.026 4.574-34.935s-24.026-12.958-34.936-4.574c-16.644 12.791-31.564 27.708-44.354 44.352-8.384 10.91-6.336 26.551 4.574 34.935zM927.083 107.631c10.91-8.384 12.958-24.026 4.574-34.935-12.791-16.644-27.712-31.561-44.356-44.352-10.91-8.384-26.551-6.336-34.931 4.574-8.388 10.91-6.34 26.551 4.574 34.935 13.205 10.15 25.050 21.995 35.204 35.204 8.384 10.91 24.026 12.958 34.935 4.574zM448.926 3.58c0 13.76 11.157 24.917 24.917 24.917h76.314c13.76 0 24.913-11.157 24.913-24.917s-11.153-24.913-24.913-24.913h-76.314c-13.76 0-24.917 11.153-24.917 24.913zM360.041 492.535c9.231 9.233 24.021 9.771 33.901 1.242l343.087-296.282c10.411-8.994 11.563-24.725 2.573-35.14-8.994-10.415-24.73-11.567-35.14-2.573l-325.559 281.143-138.829-138.825c-9.73-9.732-25.504-9.732-35.234 0-9.73 9.728-9.73 25.502 0 35.234l155.202 155.2zM577.408 493.303c9.374 8.572 23.697 8.721 33.246 0.35l207.326-181.811c10.342-9.071 11.375-24.811 2.304-35.157s-24.815-11.379-35.157-2.304l-190.549 167.095-79.223-72.478c-10.15-9.284-25.911-8.585-35.196 1.566-9.289 10.155-8.589 25.911 1.566 35.2l95.684 87.539zM478.327 553.713c-19.708 0-35.686 15.977-35.686 35.686s15.979 35.689 35.686 35.689c19.712 0 35.691-15.979 35.691-35.689s-15.979-35.686-35.691-35.686zM392.812 589.4c0-47.23 38.287-85.515 85.515-85.515 47.232 0 85.517 38.285 85.517 85.515s-38.285 85.517-85.517 85.517c-47.228 0-85.515-38.287-85.515-85.517zM956.425 313.293c13.76 0 24.917-11.157 24.917-24.917v-38.157c0-10.62-0.691-21.090-2.031-31.364-1.779-13.645-14.285-23.262-27.93-21.483s-23.262 14.285-21.483 27.925c1.062 8.145 1.613 16.465 1.613 24.922v38.157c0 13.76 11.153 24.917 24.913 24.917zM67.581 313.293c13.76 0 24.914-11.157 24.914-24.917v-38.157c0-8.457 0.55-16.777 1.612-24.922 1.78-13.641-7.838-26.146-21.483-27.925s-26.147 7.838-27.927 21.483c-1.34 10.274-2.031 20.745-2.031 31.364v38.157c0 13.76 11.154 24.917 24.914 24.917zM72.625 714.121c13.644-1.779 23.262-14.283 21.483-27.927-1.062-8.145-1.612-16.463-1.612-24.919v-38.159c0-13.76-11.155-24.913-24.914-24.913s-24.914 11.153-24.914 24.913v38.159c0 10.618 0.69 21.088 2.031 31.364 1.78 13.645 14.284 23.262 27.927 21.483zM951.381 714.121c13.645 1.779 26.15-7.838 27.93-21.483 1.34-10.276 2.031-20.747 2.031-31.364v-38.159c0-13.76-11.157-24.913-24.917-24.913s-24.913 11.153-24.913 24.913v38.159c0 8.457-0.55 16.774-1.613 24.919-1.779 13.645 7.838 26.148 21.483 27.927zM772.919 8.64c1.779-13.645-7.838-26.146-21.483-27.93-10.278-1.34-20.749-2.027-31.364-2.027h-38.161c-13.76 0-24.913 11.153-24.913 24.913s11.153 24.913 24.913 24.913h38.161c8.457 0 16.772 0.55 24.917 1.613 13.645 1.779 26.15-7.838 27.93-21.483zM656.998 892.419c0 13.76 11.153 24.914 24.913 24.914h38.161c10.615 0 21.086-0.69 31.364-2.031 13.645-1.78 23.262-14.284 21.483-27.927s-14.285-23.263-27.93-21.483c-8.145 1.063-16.461 1.612-24.917 1.612h-38.161c-13.76 0-24.913 11.154-24.913 24.914zM247.754 8.64c1.779 13.645 14.283 23.262 27.927 21.483 8.145-1.062 16.461-1.613 24.919-1.613h38.157c13.76 0 24.915-11.153 24.915-24.913s-11.155-24.913-24.915-24.913h-38.157c-10.618 0-21.088 0.687-31.364 2.027-13.645 1.783-23.264 14.285-21.483 27.93zM300.601 867.505c-8.459 0-16.774-0.55-24.919-1.612-13.645-1.78-26.148 7.839-27.927 21.483-1.781 13.644 7.838 26.147 21.483 27.927 10.276 1.34 20.747 2.031 31.364 2.031h38.157c13.76 0 24.915-11.155 24.915-24.914s-11.155-24.914-24.915-24.914h-38.157z" />
<glyph unicode="&#xe913;" glyph-name="eye-off" d="M914.001 639.041c10.317 12.518 28.634 15.441 42.419 6.25 14.703-9.804 18.679-29.67 8.875-44.375l-26.624 17.75c26.624-17.75 26.633-17.739 26.624-17.75l-0.043-0.042-0.043-0.083c-0.034-0.053-0.068-0.128-0.124-0.208-0.115-0.172-0.299-0.416-0.499-0.709-0.397-0.58-0.951-1.392-1.668-2.417-1.455-2.082-3.584-5.067-6.332-8.791-5.5-7.45-13.555-17.967-24-30.5-12.672-15.208-28.979-33.452-48.542-52.959l77.248-77.248 2.21-2.419c10.253-12.57 9.506-31.117-2.21-42.833s-30.263-12.459-42.833-2.206l-2.415 2.206-79.249 79.249c-40.845-34.334-91.311-68.928-149.833-93.999l44.497-74.167 1.545-2.871c6.895-14.682 1.664-32.521-12.544-41.045-15.151-9.079-34.825-4.147-43.917 11.004l-51.209 85.333c-35.533-9.754-73.395-15.543-113.331-15.543-39.953 0-77.828 5.781-113.376 15.543l-51.167-85.333c-9.090-15.151-28.764-20.083-43.917-11.004-15.151 9.092-20.082 28.766-11 43.917l44.458 74.167c-58.519 25.075-108.992 59.665-149.833 93.999l-79.209-79.249c-12.497-12.497-32.753-12.497-45.25 0s-12.497 32.755 0 45.252l77.208 77.248c-19.552 19.499-35.831 37.757-48.5 52.959-10.445 12.533-18.502 23.050-24 30.5-2.749 3.724-4.876 6.709-6.333 8.791-0.717 1.024-1.271 1.837-1.667 2.417-0.2 0.292-0.384 0.536-0.5 0.709-0.055 0.081-0.090 0.155-0.125 0.208l-0.042 0.083c-0.007 0.011-0.042 0.041 26.583 17.792l-26.625-17.75c-9.803 14.705-5.83 34.572 8.875 44.375s34.572 5.83 44.375-8.875c0.005-0.007 0.017-0.005 0.042-0.042 0.051-0.076 0.123-0.231 0.25-0.416 0.263-0.385 0.713-1.007 1.292-1.833 1.167-1.667 2.967-4.197 5.375-7.459 4.834-6.548 12.116-16.039 21.667-27.5 19.147-22.976 47.246-53.633 82.917-84.209 71.846-61.581 171.316-120.29 288.501-120.29 117.18 0 216.653 58.709 288.499 120.29 35.669 30.576 63.77 61.234 82.914 84.209 9.553 11.461 16.836 20.951 21.67 27.5 2.406 3.262 4.207 5.792 5.372 7.459 0.58 0.827 1.028 1.448 1.293 1.833 0.128 0.186 0.201 0.341 0.252 0.416 0.026 0.037 0.034 0.077 0.038 0.084l1.958 2.583z" />
<glyph unicode="&#xe914;" glyph-name="eye" d="M906.667 448c0 0.687 0.073 1.293-1.25 3.831-1.975 3.797-5.286 8.572-12.25 18.334-28.169 39.501-77.909 101.298-144.085 152.96-66.24 51.713-146.684 91.542-237.082 91.542-90.396 0-170.843-39.828-237.083-91.542-66.173-51.662-115.915-113.459-144.083-152.96-6.962-9.762-10.273-14.537-12.25-18.334-1.323-2.539-1.25-3.145-1.25-3.831s-0.073-1.293 1.25-3.831c1.977-3.797 5.288-8.572 12.25-18.334 28.168-39.501 77.91-101.299 144.083-152.96 66.24-51.712 146.687-91.541 237.083-91.541 90.398 0 170.842 39.829 237.082 91.541 66.176 51.661 115.917 113.459 144.085 152.96 6.963 9.762 10.274 14.537 12.25 18.334 1.323 2.539 1.25 3.145 1.25 3.831zM608 448c0 53.018-42.982 96-96 96s-96-42.982-96-96c0-53.018 42.982-96 96-96s96 42.982 96 96zM672 448c0-88.367-71.633-160-160-160s-160 71.633-160 160c0 88.366 71.634 160 160 160s160-71.634 160-160zM970.667 448c0-25.69-14.157-43.546-25.417-59.332-30.118-42.231-83.959-109.389-156.791-166.251-72.772-56.811-166.784-105.084-276.459-105.084s-203.685 48.273-276.458 105.084c-72.834 56.862-126.674 124.019-156.792 166.251-11.26 15.787-25.417 33.643-25.417 59.332s14.156 43.546 25.417 59.332c30.118 42.232 83.958 109.391 156.792 166.251 72.773 56.812 166.784 105.083 276.458 105.083s203.686-48.272 276.459-105.083c72.832-56.861 126.673-124.019 156.791-166.251 11.26-15.787 25.417-33.643 25.417-59.332z" />
<glyph unicode="&#xe915;" glyph-name="file" d="M842.667 564.375c0 66.24-0.043 113.133-4.292 149.25-4.16 35.369-11.998 56.506-24.917 72.75-8.427 10.597-18.487 20.058-29.875 28.084-17.796 12.538-41.075 20.136-79.33 24.125-38.784 4.042-89.033 4.083-159.292 4.083h-32.96c-86.334 0-148.056-0.065-194.958-6-46.168-5.842-73.106-16.881-92.667-35.291-19.284-18.151-30.629-42.74-36.708-85.292-6.241-43.688-6.333-101.337-6.333-182.75v-263.748c0-36.548 0.032-62.421 1.375-82.795 1.324-20.062 3.816-32.585 7.791-42.624 14.787-37.312 46.418-67.482 87.417-81.873 24.204-8.495 55.723-8.96 135.167-8.96 13.221 0 25.735 0.145 37.583 0.166 59.635 1.417 107.533 50.065 107.541 110.042 0 6.276-0.273 13.047-0.623 20.625-0.341 7.351-0.747 15.59-0.917 23.791-0.337 16.209 0.192 35.119 5.082 53.376 9.536 35.584 37.333 63.381 72.917 72.917 18.257 4.89 37.167 5.419 53.376 5.082 8.201-0.171 16.439-0.576 23.791-0.917 7.578-0.35 14.349-0.623 20.625-0.623 60.685 0.009 109.875 49.045 110.165 109.666 0 2.731 0.043 5.495 0.043 8.29v108.627zM469.333 522.667c17.673 0 32-14.327 32-32s-14.327-32-32-32h-128c-17.673 0-32 14.327-32 32s14.327 32 32 32h128zM640 693.333c17.673 0 32-14.327 32-32s-14.327-32-32-32h-298.667c-17.673 0-32 14.327-32 32s14.327 32 32 32h298.667zM622.208 163.541c-0.004-40.171-13.653-77.116-36.501-106.581 29.555 2.423 51.917 6.396 71.919 13.414 77.956 27.366 138.718 84.945 167.292 157.043 8.269 20.864 12.937 45.581 15.334 81.916 0.043 0.649 0.038 1.301 0.081 1.958-29.675-23.45-67.115-37.495-107.874-37.5-7.927 0-16.030 0.316-23.582 0.666-7.782 0.363-14.997 0.725-22.17 0.875-14.524 0.303-26.15-0.371-35.499-2.876-13.495-3.614-24.051-14.17-27.665-27.665-2.505-9.348-3.179-20.975-2.876-35.499 0.149-7.172 0.512-14.387 0.875-22.17 0.35-7.552 0.666-15.654 0.666-23.582zM906.667 455.748c0-2.406-0.043-4.796-0.043-7.164 0.004-0.196 0.043-0.388 0.043-0.585 0-0.529-0.038-1.058-0.043-1.583-0.004-58.3-0.085-104.047-2.539-141.291-2.607-39.501-7.927-71.671-19.669-101.295-35.759-90.231-111.061-160.691-205.581-193.873-53.769-18.876-118.694-20.369-226.044-20.501-1.591-0.043-3.187-0.124-4.791-0.124-0.631 0-1.254 0.090-1.873 0.124-10.598-0.004-21.607-0.124-33.044-0.124-74.045 0-119.276-0.439-156.375 12.582-57.56 20.207-103.734 63.219-125.708 118.669-7.446 18.799-10.633 38.758-12.166 61.999-1.515 22.963-1.5 51.298-1.5 87.002v263.748c0 79.493-0.079 142.53 6.959 191.792 7.198 50.391 22.384 91.040 56.208 122.875 33.548 31.573 75.918 45.512 128.5 52.167 51.857 6.562 118.371 6.5 203 6.5h32.96c68.881 0 123.046 0.052 165.914-4.417 43.371-4.521 79.031-13.967 109.542-35.458 16.29-11.476 30.835-25.132 43.127-40.583 23.245-29.228 33.493-63.608 38.374-105.083 4.791-40.725 4.749-92.050 4.749-156.75v-108.627z" />
<glyph unicode="&#xe916;" glyph-name="filled-heart" d="M970.667 597.333c0-112.235-74.082-195.319-137.583-257.54l-0.043 0.038-298.415-298.458c-12.497-12.497-32.755-12.497-45.252 0l-298.29 298.291c-64.18 62.042-137.75 145.041-137.75 257.668 0 70.724 28.115 138.532 78.125 188.542s117.818 78.125 188.542 78.125c40.753 0 77.349-5.824 112.96-21.333 27.452-11.96 53.116-29.187 79.040-52.083 25.924 22.896 51.588 40.123 79.040 52.083 35.61 15.509 72.209 21.333 112.96 21.333 70.724 0 138.53-28.115 188.54-78.125s78.127-117.818 78.127-188.542z" />
<glyph unicode="&#xe917;" glyph-name="filter-collapse" d="M138.667 192.004v512.001c0 17.673 14.327 32 32 32s32-14.327 32-32v-512.001c0-17.673-14.327-32-32-32s-32 14.327-32 32zM489.374 641.297c12.497 12.493 32.755 12.493 45.252 0 12.493-12.496 12.493-32.753 0-45.25l-116.043-116.043 438.001-0.166c16.132-1.638 28.698-15.27 28.706-31.834 0-17.673-14.327-32-32-32h-434.707l116.043-116.041c12.493-12.497 12.493-32.755 0-45.252-11.716-11.716-30.268-12.463-42.833-2.206l-2.419 2.206-140.499 140.501c-6.463 6.464-13.631 13.534-18.792 20.292-5.728 7.505-11.917 18.274-11.917 32.499 0.002 14.225 6.19 24.951 11.917 32.461 5.164 6.767 12.321 13.862 18.792 20.331l140.499 140.501z" />
<glyph unicode="&#xe918;" glyph-name="filter" d="M394.667 320c0 20.309-0.030 33.941-0.75 44.501-0.701 10.27-1.928 15.292-3.291 18.581-5.413 13.069-15.807 23.462-28.875 28.877-3.292 1.361-8.313 2.59-18.583 3.29-10.557 0.721-24.189 0.751-44.5 0.751s-33.943-0.030-44.5-0.751c-10.27-0.7-15.291-1.929-18.583-3.29-13.068-5.414-23.462-15.808-28.875-28.877-1.364-3.29-2.591-8.311-3.292-18.581-0.72-10.56-0.75-24.192-0.75-44.501s0.030-33.941 0.75-44.501c0.701-10.27 1.928-15.292 3.292-18.581 5.413-13.069 15.807-23.462 28.875-28.877 3.292-1.361 8.313-2.59 18.583-3.29 10.557-0.721 24.189-0.751 44.5-0.751s33.943 0.030 44.5 0.751c10.271 0.7 15.291 1.929 18.583 3.29 13.068 5.414 23.462 15.808 28.875 28.877 1.363 3.29 2.591 8.311 3.291 18.581 0.72 10.56 0.75 24.192 0.75 44.501zM693.333 64v256c0 17.673 14.327 32 32 32s32-14.327 32-32v-256c0-17.673-14.327-32-32-32s-32 14.327-32 32zM821.333 576c0 20.311-0.030 33.943-0.751 44.5-0.7 10.27-1.929 15.291-3.29 18.583-5.414 13.068-15.808 23.462-28.877 28.875-3.29 1.364-8.311 2.591-18.581 3.292-10.56 0.72-24.192 0.75-44.501 0.75s-33.941-0.030-44.501-0.75c-10.27-0.701-15.292-1.928-18.581-3.292-13.069-5.413-23.462-15.807-28.877-28.875-1.361-3.292-2.59-8.313-3.29-18.583-0.721-10.557-0.751-24.189-0.751-44.5s0.030-33.943 0.751-44.501c0.7-10.27 1.929-15.292 3.29-18.581 5.414-13.069 15.808-23.462 28.877-28.877 3.29-1.361 8.311-2.59 18.581-3.29 10.56-0.721 24.192-0.751 44.501-0.751s33.941 0.030 44.501 0.751c10.27 0.7 15.292 1.929 18.581 3.29 13.069 5.414 23.462 15.808 28.877 28.877 1.361 3.29 2.59 8.311 3.29 18.581 0.721 10.558 0.751 24.191 0.751 44.501zM266.667 576v256c0 17.673 14.327 32 32 32s32-14.327 32-32v-256c0-17.673-14.327-32-32-32s-32 14.327-32 32zM458.667 320c0-19.443 0.030-35.631-0.875-48.875-0.922-13.53-2.91-26.321-8.043-38.707-11.908-28.745-34.755-51.593-63.499-63.501-12.388-5.133-25.181-7.121-38.708-8.043-5.168-0.354-10.793-0.414-16.875-0.542v-96.333c0-17.673-14.327-32-32-32s-32 14.327-32 32v96.333c-6.083 0.128-11.707 0.188-16.875 0.542-13.527 0.922-26.32 2.91-38.708 8.043-28.744 11.908-51.592 34.756-63.5 63.501-5.132 12.386-7.119 25.178-8.042 38.707-0.904 13.244-0.875 29.431-0.875 48.875s-0.029 35.631 0.875 48.875c0.923 13.53 2.91 26.321 8.042 38.707 11.908 28.745 34.756 51.593 63.5 63.501 12.388 5.133 25.181 7.121 38.708 8.043 13.242 0.905 29.433 0.875 48.875 0.875s35.633 0.030 48.875-0.875c13.527-0.922 26.32-2.91 38.708-8.043 28.744-11.908 51.591-34.756 63.499-63.501 5.133-12.386 7.121-25.178 8.043-38.707 0.905-13.244 0.875-29.431 0.875-48.875zM885.333 576c0-19.442 0.030-35.633-0.875-48.875-0.922-13.53-2.91-26.321-8.043-38.707-11.908-28.745-34.756-51.593-63.501-63.501-12.386-5.133-25.178-7.121-38.707-8.043-13.244-0.905-29.431-0.875-48.875-0.875s-35.631-0.030-48.875 0.875c-13.53 0.922-26.321 2.91-38.707 8.043-28.745 11.908-51.593 34.756-63.501 63.501-5.133 12.386-7.121 25.178-8.043 38.707-0.905 13.242-0.875 29.432-0.875 48.875s-0.030 35.633 0.875 48.875c0.922 13.527 2.91 26.32 8.043 38.708 11.908 28.744 34.756 51.592 63.501 63.5 12.386 5.131 25.178 7.118 38.707 8.041 5.167 0.353 10.79 0.456 16.875 0.583v96.292c0 17.673 14.327 32 32 32s32-14.327 32-32v-96.292c6.084-0.128 11.708-0.23 16.875-0.583 13.53-0.923 26.321-2.91 38.707-8.041 28.745-11.909 51.593-34.756 63.501-63.5 5.133-12.388 7.121-25.181 8.043-38.708 0.905-13.242 0.875-29.433 0.875-48.875z" />
<glyph unicode="&#xe919;" glyph-name="globe" d="M512 906.667c253.316 0 458.667-205.352 458.667-458.667s-205.35-458.667-458.667-458.667c-253.315 0-458.667 205.35-458.667 458.667 0 253.315 205.352 458.667 458.667 458.667zM118.75 416c14.338-178.624 147.498-323.571 320.457-355.831-75.204 103.932-119.876 227.213-128.457 355.831h-192zM713.25 416c-8.58-128.627-53.286-251.895-128.499-355.831 172.979 32.243 306.159 177.195 320.499 355.831h-192zM374.959 416c9.312-126.473 57.182-246.98 137.041-345.417 79.859 98.436 127.731 218.944 137.041 345.417h-274.083zM584.751 835.875c75.226-103.943 119.919-227.235 128.499-355.875h192c-14.34 178.641-147.516 323.633-320.499 355.875zM512 825.458c-79.872-98.442-127.728-218.973-137.041-345.458h274.083c-9.314 126.485-57.169 247.016-137.041 345.458zM439.206 835.875c-172.962-32.257-306.119-177.248-320.457-355.875h192c8.581 128.631 53.24 251.936 128.457 355.875z" />
<glyph unicode="&#xe91a;" glyph-name="hamburger" d="M597.333 181.329l3.29-0.166c16.128-1.647 28.71-15.27 28.71-31.834-0.004-16.559-12.582-30.187-28.71-31.834l-3.29-0.166h-426.667c-17.67 0-31.995 14.332-32 32 0 17.673 14.327 32 32 32h426.667zM853.333 479.996l3.29-0.166c16.128-1.647 28.71-15.27 28.71-31.834 0-16.559-12.582-30.187-28.71-31.834l-3.29-0.166h-682.667c-17.672 0-31.998 14.327-32 32 0 17.673 14.327 32 32 32h682.667zM853.333 778.663l3.29-0.167c16.128-1.648 28.71-15.272 28.71-31.833s-12.582-30.185-28.71-31.834l-3.29-0.166h-426.667c-17.673 0-32 14.327-32 32s14.327 32 32 32h426.667z" />
<glyph unicode="&#xe91b;" glyph-name="heart" d="M906.667 597.333c0 53.751-21.367 105.284-59.375 143.292s-89.54 59.375-143.292 59.375c-34.338 0-61.76-4.845-87.377-16-25.822-11.247-51.823-29.782-81.997-59.958-12.497-12.497-32.755-12.497-45.252 0-30.174 30.176-56.175 48.711-81.999 59.958-25.615 11.155-53.038 16-87.375 16-53.751 0-105.284-21.367-143.292-59.375s-59.375-89.541-59.375-143.292c0-73.182 41.662-133.124 94.833-188.292l299.833-299.793 276.25 276.292c63.646 62.362 118.417 128.614 118.417 211.793zM970.667 597.333c0-112.235-74.082-195.319-137.583-257.54l-0.043 0.038-298.415-298.458c-12.497-12.497-32.755-12.497-45.252 0l-298.29 298.291c-64.18 62.042-137.75 145.041-137.75 257.668 0 70.724 28.115 138.532 78.125 188.542s117.818 78.125 188.542 78.125c40.753 0 77.349-5.824 112.96-21.333 27.452-11.96 53.116-29.187 79.040-52.083 25.924 22.896 51.588 40.123 79.040 52.083 35.61 15.509 72.209 21.333 112.96 21.333 70.724 0 138.53-28.115 188.54-78.125s78.127-117.818 78.127-188.542z" />
<glyph unicode="&#xe91c;" glyph-name="horizontal-menu" d="M256.375 501.333c29.455 0 53.333-23.876 53.333-53.333s-23.878-53.333-53.333-53.333h-0.375c-29.455 0-53.333 23.876-53.333 53.333s23.878 53.333 53.333 53.333h0.375zM512.209 501.333c29.453 0 53.333-23.876 53.333-53.333s-23.881-53.333-53.333-53.333h-0.375c-29.457 0-53.333 23.876-53.333 53.333s23.876 53.333 53.333 53.333h0.375zM768.375 501.333c29.453 0 53.333-23.876 53.333-53.333s-23.881-53.333-53.333-53.333h-0.375c-29.457 0-53.333 23.876-53.333 53.333s23.876 53.333 53.333 53.333h0.375z" />
<glyph unicode="&#xe91d;" glyph-name="info" d="M906.667 448c0 217.968-176.7 394.667-394.667 394.667s-394.667-176.698-394.667-394.667c0-217.967 176.698-394.667 394.667-394.667 217.967 0 394.667 176.7 394.667 394.667zM490.334 234.667v213.333c0 4.233-0.034 7.659-0.085 10.624-2.953 0.047-6.37 0.043-10.581 0.043-17.673 0-32 14.327-32 32s14.327 32 32 32c9.152 0 19.23 0.051 27.665-1.084 8.192-1.101 18.385-3.699 27.541-11.085l3.836-3.456 3.456-3.836c7.386-9.156 9.984-19.349 11.085-27.541 1.135-8.435 1.084-18.513 1.084-27.665v-213.333c0-17.673-14.327-32-32-32s-32 14.327-32 32zM512.043 650.667c17.673 0 32-14.327 32-32s-14.327-32-32-32h-0.375c-17.673 0-32 14.327-32 32s14.327 32 32 32h0.375zM970.667 448c0-253.316-205.35-458.667-458.667-458.667-253.315 0-458.667 205.35-458.667 458.667 0 253.315 205.352 458.667 458.667 458.667 253.316 0 458.667-205.352 458.667-458.667z" />
<glyph unicode="&#xe91e;" glyph-name="light-mode" d="M480 21.333v64c0 17.673 14.327 32 32 32s32-14.327 32-32v-64c0-17.673-14.327-32-32-32s-32 14.327-32 32zM235.375 216.375c12.569 10.24 31.121 9.502 42.833-2.21 12.483-12.493 12.483-32.755 0-45.248l-45.292-45.252c-12.497-12.489-32.755-12.493-45.25 0-12.485 12.497-12.488 32.759 0 45.252l45.25 45.248 2.458 2.21zM745.792 214.165c11.712 11.716 30.263 12.459 42.833 2.21l2.415-2.21 45.295-45.248 2.163-2.419c10.261-12.565 9.545-31.113-2.163-42.833-12.497-12.497-32.798-12.497-45.295 0l-45.248 45.252-2.167 2.415c-10.261 12.565-9.545 31.113 2.167 42.833zM693.333 448c0 100.148-81.186 181.333-181.333 181.333s-181.333-81.186-181.333-181.333c0-100.147 81.186-181.333 181.333-181.333s181.333 81.186 181.333 181.333zM149.333 480c17.673 0 32-14.327 32-32s-14.327-32-32-32h-64c-17.673 0-32 14.327-32 32s14.327 32 32 32h64zM938.667 480c17.673 0 32-14.327 32-32s-14.327-32-32-32h-64c-17.673 0-32 14.327-32 32s14.327 32 32 32h64zM187.667 772.333c11.718 11.718 30.264 12.466 42.833 2.208l2.417-2.208 45.25-45.25 2.208-2.417c10.253-12.569 9.508-31.117-2.208-42.833s-30.264-12.462-42.833-2.208l-2.417 2.208-45.25 45.25-2.208 2.417c-10.257 12.569-9.51 31.115 2.208 42.833zM791.083 772.333c12.497 12.497 32.755 12.497 45.252 0s12.497-32.753 0-45.25l-45.252-45.25c-12.497-12.497-32.751-12.497-45.248 0s-12.497 32.753 0 45.25l45.248 45.25zM480 810.667v64c0 17.673 14.327 32 32 32s32-14.327 32-32v-64c0-17.673-14.327-32-32-32s-32 14.327-32 32zM757.333 448c0-135.492-109.841-245.333-245.333-245.333-135.494 0-245.333 109.841-245.333 245.333 0 135.494 109.839 245.333 245.333 245.333 135.492 0 245.333-109.839 245.333-245.333z" />
<glyph unicode="&#xe91f;" glyph-name="round-cancel" d="M906.667 448c0 217.968-176.7 394.667-394.667 394.667s-394.667-176.698-394.667-394.667c0-217.967 176.698-394.667 394.667-394.667 217.967 0 394.667 176.7 394.667 394.667zM617.374 598.625c12.497 12.496 32.755 12.496 45.252 0s12.493-32.753 0-45.25l-105.417-105.375 105.374-105.374 2.21-2.419c10.257-12.57 9.51-31.113-2.21-42.833-12.497-12.489-32.755-12.493-45.248 0l-105.335 105.378-105.333-105.378c-12.494-12.493-32.752-12.489-45.25 0-12.497 12.497-12.496 32.755 0 45.252l105.335 105.374-105.377 105.375-2.208 2.417c-10.253 12.569-9.508 31.117 2.208 42.833s30.265 12.461 42.833 2.208l2.417-2.208 105.375-105.377 105.374 105.377zM970.667 448c0-253.316-205.35-458.667-458.667-458.667-253.315 0-458.667 205.35-458.667 458.667 0 253.315 205.352 458.667 458.667 458.667 253.316 0 458.667-205.352 458.667-458.667z" />
<glyph unicode="&#xe920;" glyph-name="settings" d="M804.663 447.667c0 27.191 9.318 58.274 25.293 78.498l1.25 1.502 44.041 49.249c10.492 11.664 16.55 18.434 20.416 23.875 1.737 2.437 2.479 3.863 2.795 4.583 0.137 0.313 0.192 0.492 0.209 0.541v0.125c-0.004 0.040-0.013 0.227-0.085 0.584-0.158 0.77-0.593 2.32-1.792 5.083-2.654 6.131-7.125 14.029-14.959 27.625l-21.082 36.541c-8.35 14.49-13.231 22.909-17.502 28.625-1.929 2.585-3.17 3.798-3.789 4.333l-0.461 0.334h-0.043c-0.026 0.006-0.183 0.061-0.538 0.083-0.811 0.049-2.53 0.047-5.709-0.458-7.031-1.117-16.388-3.731-32.461-8.292h-0.043l-53.538-15.042c-26.931-6.211-55.206-2.713-79.795 9.917l-0.708 0.375-0.666 0.375-14.374 8.292-0.623 0.375-0.627 0.416c-21.073 13.498-37.282 33.38-46.251 56.75l-0.247 0.667-14.46 43.208-0.043 0.042c-4.915 14.779-7.791 23.322-10.581 29.333-1.259 2.703-2.121 4.044-2.586 4.666-0.205 0.275-0.341 0.384-0.375 0.417l-0.081 0.083c-0.060 0.027-0.218 0.073-0.499 0.167-0.725 0.24-2.253 0.662-5.21 1-6.562 0.751-15.539 0.791-31.083 0.791h-47.586c-15.543 0-24.521-0.041-31.083-0.791-2.953-0.338-4.48-0.76-5.205-1-0.286-0.095-0.448-0.14-0.503-0.167l-0.081-0.083c-0.034-0.034-0.175-0.145-0.375-0.417-0.465-0.623-1.327-1.964-2.581-4.666-2.795-6.012-5.67-14.554-10.586-29.333l-0.043-0.042-14.457-43.208-0.25-0.667c-8.967-23.369-25.175-43.252-46.25-56.75l-0.625-0.416-0.625-0.375-15.042-8.667-0.708-0.375c-24.585-12.629-52.861-16.127-79.792-9.917l-0.708 0.167-0.75 0.208-52.125 14.667c-16.073 4.561-25.428 7.176-32.458 8.292-3.18 0.505-4.899 0.507-5.708 0.458-0.362-0.023-0.519-0.079-0.541-0.083h-0.042c-0.022-0.014-0.183-0.097-0.458-0.334-0.621-0.535-1.86-1.747-3.792-4.333-4.269-5.716-9.15-14.134-17.5-28.625l-21.083-36.541c-7.834-13.596-12.303-21.494-14.958-27.625-1.197-2.764-1.634-4.314-1.792-5.083-0.073-0.357-0.081-0.544-0.083-0.584v-0.125c0.014-0.049 0.071-0.227 0.208-0.541 0.316-0.72 1.059-2.146 2.792-4.583 1.935-2.721 4.407-5.793 7.709-9.625l12.708-14.25 0.042-0.084 44-49.166 1.25-1.502c15.975-20.224 25.292-51.307 25.292-78.498-0.002-27.204-9.315-58.274-25.292-78.502l-1.25-1.498-44.042-49.25c-10.489-11.665-16.547-18.436-20.417-23.876-1.734-2.441-2.477-3.866-2.792-4.582-0.14-0.32-0.196-0.499-0.208-0.542v-0.124c0.002-0.043 0.010-0.23 0.083-0.585 0.159-0.772 0.596-2.321 1.792-5.082 2.655-6.131 7.124-14.033 14.958-27.627l21.083-36.544c8.349-14.485 13.231-22.908 17.5-28.625 1.926-2.577 3.17-3.755 3.792-4.288l0.458-0.375h0.042c0.024-0.009 0.182-0.064 0.541-0.085 0.809-0.047 2.529-0.047 5.708 0.461 7.030 1.114 16.384 3.729 32.458 8.29h0.042l53.542 15.083c26.933 6.212 55.206 2.671 79.792-9.958l0.708-0.375 0.667-0.375 15.041-8.666 0.625-0.418c21.062-13.495 37.246-33.387 46.208-56.747l0.25-0.67 0.208-0.623 14.249-42.586 0.043-0.038c4.915-14.78 7.791-23.322 10.586-29.333 1.254-2.705 2.116-4.045 2.581-4.668 0.201-0.273 0.341-0.384 0.375-0.418l0.081-0.081c0.055-0.026 0.218-0.073 0.503-0.166 0.725-0.243 2.253-0.661 5.205-1.003 6.562-0.751 15.539-0.789 31.083-0.789h47.586c15.543 0 24.521 0.038 31.083 0.789 2.957 0.341 4.484 0.759 5.21 1.003 0.282 0.094 0.439 0.137 0.499 0.166l0.081 0.081c0.034 0.034 0.171 0.145 0.375 0.418 0.465 0.623 1.327 1.963 2.586 4.668 2.79 6.012 5.666 14.554 10.581 29.333l0.043 0.038 14.46 43.209 0.247 0.67c8.964 23.369 25.178 43.251 46.251 56.747l0.627 0.418 0.623 0.375 15.040 8.666 0.708 0.375c21.513 11.051 45.841 15.147 69.628 11.836l10.167-1.877 0.747-0.209 0.708-0.209 52.126-14.665c16.073-4.561 25.429-7.177 32.461-8.29 3.179-0.508 4.898-0.508 5.709-0.461 0.35 0.021 0.508 0.077 0.538 0.085h0.043l0.461 0.375c0.619 0.533 1.865 1.711 3.789 4.288 4.271 5.717 9.152 14.14 17.502 28.625l21.082 36.544c7.834 13.594 12.305 21.495 14.959 27.627 1.195 2.761 1.634 4.309 1.792 5.082 0.073 0.354 0.081 0.542 0.085 0.585v0.124c-0.013 0.047-0.068 0.222-0.209 0.542-0.316 0.721-1.058 2.142-2.795 4.582-3.866 5.44-9.924 12.211-20.416 23.876l-0.038 0.081-44.002 49.169-1.25 1.498c-15.974 20.228-25.289 51.298-25.293 78.502zM630.165 448c0 64.802-52.531 117.333-117.333 117.333s-117.334-52.531-117.334-117.333c0-64.802 52.532-117.333 117.334-117.333s117.333 52.531 117.333 117.333zM868.663 447.667c0.004-15.151 5.739-31.142 11.17-38.374l43.038-48.085 13.585-15.334c4.237-4.932 8.094-9.69 11.332-14.246 6.967-9.796 13.035-21.227 14.541-35.584 1.51-14.353-2.018-26.812-6.788-37.833-4.45-10.274-11.157-21.854-18.253-34.167l-21.082-36.544c-7.573-13.141-14.63-25.481-21.709-34.957-7.59-10.163-17.25-19.904-31.415-25.668-14.174-5.76-27.887-5.53-40.418-3.541-11.678 1.856-25.306 5.781-39.876 9.916v0.043l-50.914 14.336c-11.836 2.633-24.218 1.135-35.085-4.254l-13.001-7.497c-9.19-6.059-16.316-14.831-20.331-25.126l-13.875-41.459 0.038-0.043c-4.45-13.38-8.61-26.001-13.291-36.083-5.022-10.812-11.925-21.645-23.539-30.042-11.639-8.401-24.141-11.558-36.002-12.915-11.029-1.259-24.269-1.207-38.332-1.207h-47.586c-14.063 0-27.298-0.051-38.332 1.207-11.857 1.357-24.363 4.514-36 12.915-11.615 8.397-18.519 19.23-23.542 30.042-4.681 10.082-8.84 22.703-13.292 36.083v0.043l-13.875 41.459c-4.023 10.3-11.132 19.068-20.333 25.126l-13 7.497c-10.871 5.385-23.248 6.895-35.084 4.254l-50.916-14.336 0.041-0.043c-14.568-4.134-28.198-8.060-39.875-9.916-12.53-1.988-26.243-2.219-40.416 3.541-14.167 5.764-23.825 15.505-31.417 25.668-7.080 9.476-14.135 21.815-21.708 34.957l-21.042 36.544c-7.095 12.314-13.844 23.893-18.292 34.167-4.771 11.021-8.299 23.479-6.792 37.833 1.51 14.357 7.578 25.788 14.542 35.584 6.483 9.114 15.424 19.025 24.917 29.581l43 48.085c5.432 7.219 11.207 23.206 11.209 38.374 0 15.168-5.771 31.206-11.209 38.417l-43.042 48.124c-9.471 10.533-18.405 20.403-24.875 29.5-6.964 9.793-13.031 21.226-14.542 35.583-1.507 14.351 2.021 26.81 6.792 37.833 4.448 10.271 11.197 21.853 18.292 34.167l21.042 36.542c7.574 13.144 14.628 25.479 21.708 34.958 7.592 10.163 17.248 19.904 31.417 25.667 14.174 5.761 27.887 5.531 40.416 3.541 11.678-1.855 25.307-5.783 39.875-9.917h-0.041l50.916-14.333c11.843-2.648 24.207-1.138 35.084 4.25l13 7.5c9.203 6.063 16.315 14.819 20.333 25.125l13.875 41.458 6.583 19.292c2.174 6.074 4.371 11.757 6.708 16.791 5.023 10.814 11.927 21.648 23.542 30.042 11.637 8.403 24.143 11.56 36 12.916 11.034 1.26 24.269 1.208 38.332 1.208h47.586c14.063 0 27.302 0.052 38.332-1.208 11.861-1.356 24.363-4.513 36.002-12.916 11.614-8.394 18.517-19.228 23.539-30.042 4.681-10.082 8.841-22.701 13.291-36.083h-0.038l13.875-41.458c4.011-10.301 11.14-19.060 20.331-25.125l13.001-7.5c10.871-5.396 23.241-6.888 35.085-4.25l50.914 14.333 21.043 5.792c6.682 1.728 13.001 3.198 18.833 4.125 12.531 1.99 26.244 2.219 40.418-3.541 14.165-5.763 23.825-15.504 31.415-25.667 7.078-9.479 14.135-21.814 21.709-34.958l21.082-36.542c7.095-12.313 13.803-23.895 18.253-34.167 4.77-11.024 8.299-23.482 6.788-37.833-1.506-14.358-7.573-25.79-14.541-35.583-6.473-9.103-15.437-18.96-24.917-29.5l-43.038-48.124c-5.436-7.223-11.17-23.266-11.17-38.417zM694.165 448c0-100.147-81.186-181.333-181.333-181.333s-181.334 81.186-181.334 181.333c0 100.147 81.186 181.333 181.334 181.333s181.333-81.186 181.333-181.333z" />
<glyph unicode="&#xe921;" glyph-name="tick" d="M799.543 691.334c16.567 6.144 34.978-2.307 41.122-18.875s-2.308-34.978-18.876-41.125c-47.057-17.461-97.813-53.428-148.416-99.916-50.24-46.161-98.534-100.988-140.749-154.001-42.155-52.941-77.884-103.561-103.083-140.958-12.584-18.675-22.488-34.031-29.251-44.668-3.381-5.316-5.979-9.459-7.709-12.25-0.861-1.387-1.531-2.428-1.958-3.123-0.212-0.35-0.357-0.627-0.458-0.794-0.049-0.077-0.102-0.128-0.125-0.166v-0.043c-5.877-9.69-16.457-15.561-27.792-15.415-11.334 0.149-21.751 6.285-27.375 16.124-41.036 71.812-75.443 105.097-97.208 120.333-10.836 7.586-18.63 10.748-22.708 12.045-2.055 0.653-3.27 0.875-3.542 0.917 0.050-0.009 0.155-0.034 0.291-0.043 0.155-0.013 0.363-0.034 0.625-0.043h0.917c0.004 0 0.038 0 0.041 0.043-17.654 0.021-31.958 14.298-31.958 31.957 0 17.673 14.327 32 32 32v-24.457c0.006 24.457 0.049 24.457 0.083 24.457h0.542c0.227-0.004 0.49-0.030 0.75-0.043 0.517-0.017 1.107-0.034 1.75-0.081 1.293-0.098 2.852-0.273 4.625-0.542 3.558-0.542 8.026-1.493 13.292-3.166 10.586-3.371 24.133-9.549 39.959-20.625 24.936-17.455 55.27-46.967 88.75-96.794 4.070 6.182 8.559 12.915 13.417 20.126 25.859 38.379 62.595 90.428 106.081 145.041 43.43 54.537 93.982 112.162 147.503 161.333 53.158 48.838 111.108 91.101 169.459 112.75z" />
<glyph unicode="&#xe922;" glyph-name="user" d="M264.297 326.959c151.63 90.274 343.789 90.274 495.418 0 26.705-15.902 87.232-46.396 125.918-84.25 19.695-19.281 38.43-44.706 41.83-75.836 3.618-33.097-10.825-64.149-39.791-91.75-49.98-47.616-109.961-85.79-187.541-85.79h-376.25c-77.58 0-137.56 38.174-187.542 85.79-28.965 27.601-43.408 58.654-39.792 91.75 3.403 31.13 22.135 56.555 41.833 75.836 38.683 37.854 99.211 68.348 125.917 84.25zM727.006 271.957c-131.465 78.281-298.539 78.281-430.001 0-33.653-20.036-82.435-44.224-113.875-74.999-15.366-15.040-21.911-27.456-22.959-37.043-0.829-7.607 1.114-20.147 20.334-38.455 44.194-42.103 89.087-68.126 143.375-68.126h376.25c54.289 0 99.183 26.022 143.373 68.126 19.221 18.308 21.167 30.848 20.335 38.455-1.045 9.587-7.59 22.003-22.959 37.043-31.441 30.775-80.222 54.963-113.873 74.999zM672.004 682.667c0 88.366-71.633 160-160 160-88.365 0-159.999-71.634-159.999-160s71.634-160 159.999-160c88.367 0 160 71.634 160 160zM736.004 682.667c0-123.712-100.288-224-224-224s-223.999 100.288-223.999 224c0 123.712 100.288 224 223.999 224s224-100.288 224-224z" />
<glyph unicode="&#xe923;" glyph-name="vertical-menu" d="M511.71 245.333c29.453 0 53.333-23.876 53.333-53.333s-23.881-53.333-53.333-53.333h-0.375c-29.457 0-53.333 23.876-53.333 53.333s23.876 53.333 53.333 53.333h0.375zM512.043 501.333c29.453 0 53.333-23.876 53.333-53.333s-23.881-53.333-53.333-53.333h-0.375c-29.457 0-53.333 23.876-53.333 53.333s23.876 53.333 53.333 53.333h0.375zM512.375 757.333c29.453 0 53.333-23.878 53.333-53.333s-23.881-53.333-53.333-53.333h-0.375c-29.457 0-53.333 23.878-53.333 53.333s23.876 53.333 53.333 53.333h0.375z" />
<glyph unicode="&#xe924;" glyph-name="wb-align-bottom" d="M906.671 85.333l3.294-0.166c16.124-1.647 28.706-15.27 28.706-31.834 0-16.559-12.582-30.187-28.706-31.834l-3.294-0.166h-789.332c-17.673 0-32 14.327-32 32s14.327 32 32 32h789.332zM618.671 544.001c0 29.455 23.881 53.333 53.333 53.333h85.333c29.457 0 53.333-23.878 53.333-53.333v-256.001c0-29.453-23.876-53.333-53.333-53.333h-85.333c-29.453 0-53.333 23.881-53.333 53.333v256.001zM554.671 288c0-64.802 52.531-117.333 117.333-117.333h85.333c64.802 0 117.333 52.531 117.333 117.333v256.001c0 64.801-52.531 117.333-117.333 117.333h-85.333c-64.802 0-117.333-52.532-117.333-117.333v-256.001zM213.338 757.334c0 29.455 23.878 53.333 53.333 53.333h85.333c29.455 0 53.333-23.878 53.333-53.333v-469.334c0-29.453-23.878-53.333-53.333-53.333h-85.333c-29.455 0-53.333 23.881-53.333 53.333v469.334zM149.338 288c0-64.802 52.532-117.333 117.333-117.333h85.333c64.801 0 117.332 52.531 117.332 117.333v469.334c0 64.801-52.531 117.333-117.332 117.333h-85.333c-64.801 0-117.333-52.532-117.333-117.333v-469.334z" />
<glyph unicode="&#xe925;" glyph-name="wb-align-horizontal" d="M181.328 480l3.292-0.166c16.127-1.647 28.708-15.27 28.708-31.834s-12.582-30.187-28.708-31.834l-3.292-0.166h-64c-17.673 0-32 14.327-32 32s14.327 32 32 32h64zM586.662 480l3.29-0.166c16.128-1.647 28.71-15.27 28.71-31.834s-12.582-30.187-28.71-31.834l-3.29-0.166h-149.333c-17.674 0-32.001 14.327-32.001 32s14.327 32 32.001 32h149.333zM906.662 480l3.29-0.166c16.128-1.647 28.71-15.27 28.71-31.834s-12.582-30.187-28.71-31.834l-3.29-0.166h-64c-17.673 0-32 14.327-32 32s14.327 32 32 32h64zM618.662 576c0 29.455 23.876 53.333 53.333 53.333h85.333c29.453 0 53.333-23.878 53.333-53.333v-256c0-29.457-23.881-53.333-53.333-53.333h-85.333c-29.457 0-53.333 23.876-53.333 53.333v256zM554.662 320c0-64.802 52.531-117.333 117.333-117.333h85.333c64.802 0 117.333 52.531 117.333 117.333v256c0 64.801-52.531 117.333-117.333 117.333h-85.333c-64.802 0-117.333-52.532-117.333-117.333v-256zM213.328 682.667c0 29.455 23.878 53.333 53.333 53.333h85.333c29.455 0 53.333-23.878 53.333-53.333v-469.333c0-29.457-23.878-53.333-53.333-53.333h-85.333c-29.455 0-53.333 23.876-53.333 53.333v469.333zM149.328 213.333c0-64.802 52.532-117.333 117.333-117.333h85.333c64.801 0 117.334 52.531 117.334 117.333v469.333c0 64.801-52.533 117.333-117.334 117.333h-85.333c-64.801 0-117.333-52.532-117.333-117.333v-469.333z" />
<glyph unicode="&#xe926;" glyph-name="wb-align-left" d="M85.333 53.333v789.333c0 17.673 14.327 32 32 32s32-14.327 32-32v-789.333c0-17.673-14.327-32-32-32s-32 14.327-32 32zM608 341.333c29.457 0 53.333-23.876 53.333-53.333v-85.333c0-29.453-23.876-53.333-53.333-53.333h-256c-29.455 0-53.333 23.881-53.333 53.333v85.333c0 29.457 23.878 53.333 53.333 53.333h256zM352 405.333c-64.801 0-117.333-52.531-117.333-117.333v-85.333c0-64.802 52.532-117.333 117.333-117.333h256c64.802 0 117.333 52.531 117.333 117.333v85.333c0 64.802-52.531 117.333-117.333 117.333h-256zM821.333 746.667c29.457 0 53.333-23.878 53.333-53.333v-85.333c0-29.455-23.876-53.333-53.333-53.333h-469.333c-29.455 0-53.333 23.878-53.333 53.333v85.333c0 29.455 23.878 53.333 53.333 53.333h469.333zM352 810.667c-64.802 0-117.333-52.532-117.333-117.333v-85.333c0-64.801 52.532-117.333 117.333-117.333h469.333c64.802 0 117.333 52.532 117.333 117.333v85.333c0 64.802-52.531 117.333-117.333 117.333h-469.333z" />
<glyph unicode="&#xe927;" glyph-name="wb-align-right" d="M874.662 53.333v789.334c0 17.673 14.327 32 32 32s32-14.327 32-32v-789.334c0-17.673-14.327-32-32-32s-32 14.327-32 32zM415.997 341.333c-29.455 0-53.333-23.876-53.333-53.333v-85.333c0-29.453 23.878-53.333 53.333-53.333h255.999c29.457 0 53.333 23.881 53.333 53.333v85.333c0 29.457-23.876 53.333-53.333 53.333h-255.999zM671.996 405.333c64.802 0 117.333-52.531 117.333-117.333v-85.333c0-64.802-52.531-117.333-117.333-117.333h-255.999c-64.801 0-117.333 52.531-117.333 117.333v85.333c0 64.802 52.532 117.333 117.333 117.333h255.999zM202.664 746.668c-29.455 0-53.333-23.878-53.333-53.333v-85.333c0-29.455 23.878-53.333 53.333-53.333h469.332c29.457 0 53.333 23.878 53.333 53.333v85.333c0 29.455-23.876 53.333-53.333 53.333h-469.332zM671.996 810.668c64.802 0 117.333-52.532 117.333-117.333v-85.333c0-64.802-52.531-117.334-117.333-117.334h-469.332c-64.801 0-117.333 52.532-117.333 117.334v85.333c0 64.801 52.532 117.333 117.333 117.333h469.332z" />
<glyph unicode="&#xe928;" glyph-name="wb-brush" d="M401.78 220.702c35.587 16.555 83.22 49.19 134.625 90.249 51.934 41.481 109.461 92.962 165.082 148.582 79.061 79.060 145.246 157.229 188.25 220.084 21.346 31.2 37.939 59.972 47.211 84 4.591 11.904 8.094 24.48 8.623 36.583 0.525 12.020-1.843 28.012-14.289 40.459-12.45 12.441-28.442 14.816-40.461 14.292-12.1-0.53-24.64-4.076-36.54-8.667-24.034-9.27-52.834-25.855-84.041-47.208-62.857-43.008-141.026-109.193-220.083-188.25-55.543-55.544-107.093-112.893-148.669-164.669-41.133-51.226-73.931-98.739-90.542-134.374l58-27.042c13.24 28.407 42.053 71.057 82.458 121.378 39.97 49.779 89.929 105.382 144 159.457 77.146 77.145 152.294 140.542 210.999 180.708 29.474 20.164 53.483 33.523 70.75 40.208-6.686-17.269-20.083-41.276-40.247-70.75-40.166-58.701-103.531-133.819-180.668-210.957-54.089-54.089-109.875-103.966-159.791-143.834-50.436-40.282-93.229-69.018-121.668-82.253l27-57.997zM98.212 78.75c40.236-40.235 100.669-44.736 152.25-35.081 52.501 9.826 105.937 35.857 140.5 70.417 58.164 58.163 50.591 157.175-22.125 204.625-41.035 26.765-95.979 28.113-138.208 2.624-32.447-19.588-53.105-49.527-61.167-82.167-8.811-35.665-22.024-65.941-44.083-88l-49.792-49.792 22.625-22.626zM238.712 106.586c-25.833-4.834-48.465-4.177-66.375 1.122 32.639 33.519 49.296 75.827 59.25 116.126 4.091 16.563 14.562 32.107 32.125 42.709 20.919 12.625 49.426 12.075 70.167-1.459 38.025-24.819 41.778-75.742 11.833-105.707-24.012-24.013-65.056-44.941-107-52.791zM581.572 393.024l-98.377 98.372-45.248-45.248 98.372-98.377 45.252 45.252z" />
<glyph unicode="&#xe929;" glyph-name="wb-calendar" d="M885.333 437.623c0 59.409-0.030 108.217-1.668 149.043h-743.332c-1.637-40.826-1.667-89.634-1.667-149.043v-21.914c0-93.794 0.042-161.156 6.417-212.42 6.289-50.573 18.271-80.585 38.5-102.455 19.904-21.517 46.695-33.993 92.333-40.627 46.834-6.805 108.586-6.874 195.541-6.874h81.084c86.955 0 148.706 0.068 195.541 6.874 45.636 6.635 72.431 19.11 92.335 40.627 20.228 21.871 32.209 51.883 38.498 102.455 6.374 51.264 6.417 118.626 6.417 212.42v21.914zM341.708 266.667c17.673 0 32-14.327 32-32s-14.327-32-32-32h-0.375c-17.673 0-32 14.327-32 32s14.327 32 32 32h0.375zM512.209 266.667c17.664-0.009 32-14.332 32-32s-14.336-31.991-32-32h-0.418c-17.664 0.009-32 14.332-32 32s14.336 31.991 32 32h0.418zM341.708 437.333c17.673 0 32-14.327 32-32s-14.327-32-32-32h-0.375c-17.673 0-32 14.327-32 32s14.327 32 32 32h0.375zM512.209 437.333l3.251-0.166c16.137-1.638 28.749-15.262 28.749-31.834s-12.612-30.195-28.749-31.834l-3.251-0.166h-0.418c-17.664 0.009-32 14.332-32 32s14.336 31.991 32 32h0.418zM682.667 437.333c17.673 0 32-14.327 32-32s-14.327-32-32-32h-0.375c-17.673 0-32 14.327-32 32s14.327 32 32 32h0.375zM471.458 800c-79.685 0-138.189-0.125-183.458-5.375v-5.292c0-17.673-14.327-32-32-32-14.595 0-26.779 9.809-30.625 23.167-17.436-6.92-30.702-16.011-41.792-28-20.146-21.783-32.107-51.635-38.417-101.833h733.669c-6.31 50.199-18.274 80.050-38.417 101.833-11.098 11.997-24.38 21.078-41.835 28-3.849-13.352-15.991-23.167-30.583-23.167-17.673 0-32 14.327-32 32v5.292c-45.269 5.25-103.774 5.375-183.458 5.375h-81.084zM949.333 415.71c0-92.117 0.064-164.203-6.916-220.335-7.066-56.798-21.824-102.123-55.002-138.001-33.515-36.233-76.433-52.693-130.125-60.497-52.501-7.633-119.744-7.543-204.749-7.543h-81.084c-85.004 0-152.247-0.090-204.75 7.543-53.692 7.804-96.608 24.265-130.125 60.497-33.177 35.878-47.935 81.203-55 138.001-6.981 56.132-6.917 128.218-6.917 220.335v21.914c0 92.117-0.064 164.202 6.917 220.335 7.065 56.798 21.823 102.124 55 138 24.102 26.057 53.085 41.851 87.417 51.584v27.125c0 17.673 14.327 32 32 32s32-14.327 32-32v-15.625c49.045 5.005 109.529 4.958 183.458 4.958h81.084c73.929 0 134.413 0.047 183.458-4.958v15.625c0 17.673 14.327 32 32 32s32-14.327 32-32v-27.125c34.334-9.732 63.313-25.527 87.415-51.584 33.178-35.876 47.936-81.202 55.002-138 6.98-56.133 6.916-128.218 6.916-220.335v-21.914z" />
<glyph unicode="&#xe92a;" glyph-name="wb-collapse" d="M303.863 84.514v124.715c0 13.786-5.479 26.999-15.224 36.745s-22.959 15.223-36.741 15.223h-124.718c-17.22 0-31.18 13.961-31.18 31.181s13.96 31.177 31.18 31.177h124.718c30.321 0 59.391-12.053 80.831-33.493s33.493-50.509 33.493-80.832v-124.715c0-17.22-13.959-31.181-31.18-31.181s-31.18 13.961-31.18 31.181zM636.446 84.514v124.715c0 30.323 12.053 59.392 33.493 80.832s50.509 33.493 80.832 33.493h124.715c17.22 0 31.181-13.956 31.181-31.177s-13.961-31.181-31.181-31.181h-124.715c-13.786 0-26.999-5.478-36.745-15.223s-15.223-22.959-15.223-36.745v-124.715c0-17.22-13.961-31.181-31.181-31.181s-31.177 13.961-31.177 31.181zM303.863 708.102v124.718c0 17.22 13.96 31.18 31.18 31.18s31.18-13.96 31.18-31.18v-124.718c0-30.321-12.053-59.391-33.493-80.831s-50.511-33.493-80.831-33.493h-124.718c-17.22 0-31.18 13.959-31.18 31.18s13.96 31.18 31.18 31.18h124.718c13.782 0 26.996 5.479 36.741 15.224s15.224 22.959 15.224 36.741zM636.446 708.102v124.718c0 17.22 13.956 31.18 31.177 31.18s31.181-13.96 31.181-31.18v-124.718c0-13.782 5.478-26.996 15.223-36.741s22.959-15.224 36.745-15.224h124.715c17.22 0 31.181-13.96 31.181-31.18s-13.961-31.18-31.181-31.18h-124.715c-30.323 0-59.392 12.053-80.832 33.493s-33.493 50.511-33.493 80.831z" />
<glyph unicode="&#xe92b;" glyph-name="wb-color-picker" d="M634.167 868.623c10.172 8.265 24.469 7.903 34.167-0.164l3.861-3.931 34.082-42.544 12.8 10.4c10.684 8.691 18.509 15.129 26.406 19.613l0.038 0.041c18.466 10.45 39.718 14.838 60.774 12.571 18.428-1.986 35.913-8.989 50.62-20.187l6.135-5.036 0.081-0.082c3.345-3.011 6.588-6.522 10.078-10.605l11.537-14.127 0.038-0.082c6.417-8.039 11.674-14.472 15.765-20.556l3.695-6.019c10.372-18.61 14.758-40.032 12.514-61.257-2.249-21.198-11.025-41.146-25.028-57.121l0.043-0.041c-6.050-6.932-14.178-13.355-24.742-21.948l-12.796-10.4 34.125-42.585 2.965-4.627c5.786-11.256 3.132-25.422-7.027-33.699-10.176-8.276-24.508-7.918-34.206 0.164l-3.819 3.931-34.615 43.24-337.19-274.302c-33.668-27.388-56.076-46.208-83.648-54.421l-0.041-0.038c-27.609-8.158-56.558-4.561-99.654 0.081l-34.775 3.767c-7.121 0.768-13.659 4.335-18.16 9.95-4.502 5.623-6.609 12.838-5.85 20.023l3.738 35.051c4.603 43.435 7.22 72.713 20.963 98.189 13.788 25.434 36.809 43.571 70.485 70.963l337.151 274.302-34.573 43.158-3.004 4.627c-5.777 11.26-3.102 25.429 7.066 33.699zM361.49 470.413c-37.082-30.161-49.509-40.896-56.957-54.622-7.415-13.764-9.641-30.084-14.706-77.884l-0.853-7.94 7.922-0.862c47.448-5.107 63.729-6.37 78.651-1.967 14.872 4.446 27.91 14.417 64.961 44.553l337.152 274.304-79.019 98.682-337.151-274.264zM800.529 810.397c-9.886 1.062-19.849-0.991-28.518-5.896l-0.038 0.041c-3.021-1.722-6.733-4.655-18.931-14.577l-12.838-10.4 80.073-99.992 12.796 10.359c12.437 10.116 15.876 13.036 18.078 15.56l0.081 0.082c6.588 7.507 10.688 16.896 11.742 26.861 1.058 9.963-0.986 20.007-5.85 28.745-1.707 3.046-4.514 6.703-14.421 19.122-9.92 12.344-12.979 15.981-15.599 18.344-7.433 6.584-16.73 10.692-26.573 11.752zM165.332 220.996c-22.86-34.249-58.665-92.561-58.665-121.796 0.001-43.012 34.581-77.867 77.257-77.867 42.607 0 77.187 34.854 77.187 77.867 0 29.235-35.769 87.539-58.608 121.788-8.883 13.325-28.282 13.325-37.17 0.009z" />
<glyph unicode="&#xe92c;" glyph-name="computer" d="M906.709 533.291c0 70.65-0.047 121.14-4.169 160.251-4.062 38.539-11.776 62.347-24.751 80.875-10.701 15.286-24.004 28.588-39.292 39.292-18.526 12.974-42.334 20.687-80.875 24.75-39.108 4.122-89.6 4.166-160.247 4.166h-170.667c-70.65 0-121.14-0.044-160.251-4.166-38.539-4.063-62.347-11.776-80.875-24.75-15.286-10.704-28.588-24.006-39.292-39.292-12.974-18.528-20.687-42.336-24.75-80.875-4.122-39.11-4.166-89.601-4.166-160.251 0-70.647 0.044-121.139 4.166-160.247 4.063-38.541 11.776-62.349 24.75-80.875 10.704-15.287 24.006-28.591 39.292-39.292 18.528-12.975 42.336-20.689 80.875-24.751 39.11-4.122 89.601-4.169 160.251-4.169h170.667c70.647 0 121.139 0.047 160.247 4.169 38.541 4.062 62.349 11.776 80.875 24.751 15.287 10.701 28.591 24.004 39.292 39.292 12.975 18.526 20.689 42.334 24.751 80.875 4.122 39.108 4.169 89.6 4.169 160.247zM478.165 159.957c4.821-36.292-0.098-74.014-14.455-106.709h96.666c-14.362 32.695-19.277 70.417-14.46 106.709h-67.75zM554.709 351.915c17.673 0 32-14.323 32-32-0.013-17.66-14.336-32-32-32h-85.333c-17.668 0-31.991 14.34-32 32 0 17.677 14.327 32 32 32h85.333zM970.709 533.291c0-69.265 0.055-123.712-4.501-166.959-4.617-43.81-14.251-79.812-35.998-110.874-14.985-21.397-33.604-40.017-55.002-55.002-31.061-21.747-67.063-31.381-110.874-35.998-40.431-4.262-90.658-4.446-153.626-4.459-7.219-36.587 0.661-75.84 20.083-101.623l3.874-5.129h90.709l3.247-0.166c16.141-1.638 28.753-15.262 28.753-31.834 0-16.567-12.612-30.191-28.753-31.829l-3.247-0.171h-426.668c-17.673 0-32 14.327-32 32 0 17.677 14.327 32 32 32h90.708l3.875 5.129c19.422 25.783 27.263 65.037 20.042 101.623-62.95 0.013-113.162 0.196-153.583 4.459-43.814 4.617-79.814 14.251-110.875 35.998-21.399 14.985-40.015 33.604-55 55.002-21.749 31.061-31.382 67.063-36 110.874-4.559 43.247-4.5 97.694-4.5 166.959s-0.058 123.715 4.5 166.959c4.618 43.814 14.251 79.814 36 110.875 14.985 21.399 33.601 40.015 55 55 31.060 21.749 67.061 31.382 110.875 36 43.244 4.559 97.693 4.5 166.959 4.5h170.667c69.265 0 123.712 0.058 166.959-4.5 43.81-4.618 79.812-14.251 110.874-36 21.397-14.985 40.017-33.601 55.002-55 21.747-31.060 31.381-67.061 35.998-110.875 4.557-43.244 4.501-97.693 4.501-166.959z" />
<glyph unicode="&#xe92d;" glyph-name="wb-design" d="M630.101 873.969c32.269 3.842 59.46-8.575 85.124-27.584 24.806-18.373 52.629-46.295 86.374-80.041l7.42-7.417c33.745-33.746 61.67-61.569 80.038-86.375 19.004-25.663 31.428-52.86 27.584-85.125-5.090-42.649-33.395-74.945-60.625-98.25-26.078-22.319-57.775-41.655-78.165-55.292-51.2-52.049-68.25-100.446-73.335-152.29-2.948-30.114-5.363-55.053-9.165-74.419-3.797-19.337-9.873-38.285-23.582-53.248-13.12-14.315-29.461-21.978-46.916-27.294-16.806-5.116-38.050-9.020-62.835-13.623l-318.417-59.127c-29.491-5.474-55.189-10.338-75.583-11.081-21.117-0.768-44.073 2.487-62.083 20.497-18.003 18.010-21.267 40.973-20.5 62.084 0.746 20.399 5.607 46.131 11.084 75.627l59.125 318.417c4.602 24.786 8.508 46.027 13.625 62.832 5.318 17.457 12.978 33.798 27.292 46.917 14.965 13.708 33.911 19.787 53.25 23.584 19.368 3.8 44.301 6.179 74.417 9.125 51.879 5.076 100.304 22.16 152.373 73.417 13.636 20.393 32.969 52.005 55.253 78.042 23.309 27.232 55.59 55.54 98.249 60.625zM500.433 670.385c-56.179-47.864-111.956-66.49-169.957-72.166-31.432-3.075-52.716-5.228-68.333-8.292-15.559-3.055-20.453-6.206-22.333-7.917-2.509-2.3-5.666-6.479-9.292-18.375-3.827-12.57-7.043-29.672-11.917-55.915l-59.125-318.417c-2.372-12.779-4.321-23.71-5.917-33.126l199.625 199.625c-10.487 16.892-17.255 35.627-20.416 55.083-2.828 17.438 9.023 33.873 26.458 36.71 17.444 2.829 33.876-9.015 36.708-26.458 2.908-17.89 10.525-33.399 22.5-45.376 10.484-10.479 23.673-17.604 38.79-21.167l6.583-1.335 3.209-0.666c15.659-4.207 25.907-19.691 23.253-36.041-2.671-16.337-17.28-27.759-33.459-26.79l-3.251 0.333-11.123 2.206c-15.488 3.665-30.338 9.762-44.001 18.253l-199.584-199.586c9.409 1.596 20.327 3.507 33.083 5.875l318.418 59.127c26.24 4.873 43.307 8.090 55.872 11.917 11.913 3.627 16.077 6.78 18.377 9.289 1.711 1.877 4.898 6.754 7.957 22.336 3.068 15.616 5.171 36.907 8.252 68.331 5.683 58.010 24.265 113.835 72.124 170.001l-212.501 212.542zM637.683 810.427c-18.317-2.182-37.090-15.207-57.207-38.708-14.229-16.628-26.313-34.869-38.042-52.833l219.042-219.084c17.975 11.733 36.279 23.761 52.915 38.001 23.492 20.108 36.523 38.896 38.711 57.208 1.114 9.356-1.233 20.244-15.458 39.459-14.874 20.081-38.707 43.998-73.92 79.208l-7.373 7.375c-35.209 35.21-59.127 59.043-79.211 73.917-19.221 14.235-30.097 16.571-39.458 15.459z" />
<glyph unicode="&#xe92e;" glyph-name="wb-down-arrow" d="M196 579.88l279.558-326.24c4.51-5.257 10.099-9.476 16.388-12.369s13.129-4.39 20.053-4.39c6.925 0 13.764 1.498 20.053 4.39s11.883 7.113 16.388 12.369l279.561 326.24c26.679 31.14 4.557 79.24-36.442 79.24h-559.2c-41 0-63.12-48.1-36.36-79.24z" />
<glyph unicode="&#xe92f;" glyph-name="wb-drag" d="M695.573 544.625v135.125c-0.474 9.453-4.514 18.374-11.332 24.958-6.946 6.708-16.218 10.453-25.877 10.458-9.66 0-18.961-3.746-25.916-10.458-6.818-6.584-10.859-15.506-11.332-24.958v-135.125l-0.166-3.25c-1.634-16.135-15.27-28.743-31.834-28.752-16.572 0-30.195 12.612-31.834 28.752l-0.166 3.25v229.125c0 20.239-16.516 36.909-37.248 36.917h-0.085c-9.83 0.016-19.281-3.858-26.249-10.792-6.972-6.937-10.889-16.373-10.918-26.208v-229.083c-0.009-17.663-14.336-31.994-32-31.999-17.668 0-31.992 14.332-32 31.999v135.75l-0.208 3.75c-1.9 18.491-17.635 33.12-37.041 33.125-20.707 0-37.243-16.65-37.25-36.875v-370.206c-0.010-17.664-14.337-31.996-32-32-17.667 0-31.99 14.332-32 32v162.705c-0.006 0.265-0.042 0.529-0.042 0.794v3.123l-20.541-6.541c-19.016-6.029-35.751-17.673-48-33.417-12.25-15.748-19.459-34.833-20.625-54.75l-0.625-10.918c-2.141-36.727 3.249-73.506 15.833-108.083 12.582-34.564 32.090-66.197 57.333-92.958 25.25-26.761 55.716-48.094 89.5-62.665 33.786-14.571 70.206-22.089 107.002-22.084h125.871c65.856 0.004 129.020 26.185 175.586 72.751 46.562 46.566 72.708 109.73 72.708 175.582v253.126c-0.034 9.833-3.947 19.272-10.918 26.208-6.972 6.932-16.418 10.809-26.249 10.791h-0.124c-9.843 0.025-19.315-3.854-26.291-10.791s-10.927-16.372-10.961-26.208v-42.167c-0.009-17.666-14.332-32.002-32-32.002-17.66 0.013-31.991 14.345-32 32.002zM621.116 772.041c11.75 4.647 24.38 7.125 37.248 7.125 26.244-0.005 51.456-10.189 70.336-28.417 18.876-18.228 29.948-43.066 30.874-69.292 0.009-0.259-0.004-0.533 0-0.792 11.755 4.644 24.367 7.139 37.252 7.125 26.795 0.050 52.501-10.557 71.497-29.458s29.709-44.578 29.794-71.375v-253.292c0-82.833-32.887-162.304-91.46-220.873-58.569-58.564-138.010-91.456-220.834-91.46h-125.871c-45.51-0.004-90.546 9.271-132.335 27.29-41.79 18.022-79.475 44.403-110.708 77.504s-55.35 72.273-70.917 115.038c-15.562 42.761-22.228 88.243-19.583 133.67l0.625 10.957c1.925 32.841 13.763 64.324 33.958 90.291 20.204 25.971 47.842 45.222 79.208 55.168l39.917 12.665v136.417c0.007 55.88 45.507 100.875 101.25 100.875 13.145-0.001 25.707-2.523 37.25-7.084 0.153 26.699 10.863 52.245 29.79 71.084 18.987 18.891 44.681 29.455 71.462 29.417 55.795-0.008 101.248-45.007 101.248-100.875v-1.708z" />
<glyph unicode="&#xe930;" glyph-name="wb-expand" d="M138.669 192v85.333c0 17.673 14.327 32 32 32s32-14.327 32-32v-85.333c0-14.144 5.623-27.708 15.625-37.709s23.564-15.625 37.708-15.625h85.333l3.292-0.166c16.127-1.647 28.708-15.27 28.708-31.834s-12.582-30.187-28.708-31.834l-3.292-0.166h-85.333c-31.119 0-60.954 12.369-82.958 34.377-22.004 22.003-34.375 51.84-34.375 82.957zM821.338 192v85.333c0 17.673 14.323 32 32 32 17.673 0 32-14.327 32-32v-85.333c0-31.117-12.373-60.954-34.377-82.957-22.003-22.007-51.84-34.377-82.957-34.377h-85.333c-17.677 0-32 14.327-32 32s14.323 32 32 32h85.333c14.144 0 27.703 5.623 37.709 15.625 10.001 10.001 15.625 23.565 15.625 37.709zM138.669 618.667v85.333c0 31.119 12.371 60.954 34.375 82.959s51.84 34.375 82.958 34.375h85.333c17.673 0 32-14.327 32-32s-14.327-32-32-32h-85.333c-14.145 0-27.706-5.623-37.708-15.625s-15.625-23.564-15.625-37.708v-85.333c0-17.673-14.327-32-32-32s-32 14.327-32 32zM821.338 618.667v85.333c0 14.145-5.623 27.706-15.625 37.708-10.005 10.002-23.565 15.625-37.709 15.625h-85.333c-17.677 0-32 14.327-32 32s14.323 32 32 32h85.333c31.117 0 60.954-12.371 82.957-34.375s34.377-51.84 34.377-82.959v-85.333c0-17.673-14.327-32-32-32-17.677 0-32 14.327-32 32z" />
<glyph unicode="&#xe931;" glyph-name="wb-globe" d="M512.026 863.959c89.075-0.006 171.695-27.971 239.377-75.708 70.835-49.862 124.378-120.659 153.084-202.375 28.698-81.713 31.168-170.349 7.083-253.54-24.090-83.2-73.532-156.843-141.461-210.586-67.925-53.739-150.95-84.902-237.457-89.207-86.511-4.301-172.241 18.509-245.166 65.25-72.911 46.737-129.404 115.072-161.625 195.46-32.222 80.401-38.545 168.875-18.083 253.040s66.673 159.866 132.209 216.5c75.504 65.413 172.102 101.305 271.998 101.167l0.085 0.042-0.043-0.042zM435.9 543.959c0 10.502 2.069 20.922 6.084 30.625 4.019 9.702 9.911 18.532 17.335 25.958l5.372 5.458 0.209 0.167c11.887 11.884 27.2 19.736 43.793 22.417 16.589 2.679 33.604 0.076 48.623-7.459l25.754-12.916c0.469-0.233 1.020-0.292 1.54-0.208 0.516 0.087 1.003 0.338 1.374 0.708 0.367 0.372 0.627 0.859 0.708 1.375 0.081 0.512-0.021 1.035-0.247 1.5v0.042l-7.044 14.042c-7.232 14.434-2.594 31.998 10.833 40.958l53.585 35.709c19.085 12.733 35.093 29.43 47.125 48.833-52.395 31.014-113.549 48.833-178.961 48.833h-0.038c-78.609 0.119-154.806-26.161-216.46-74.375l10.583-63.416c7.673-46.063 29.562-88.607 62.583-121.625l69.958-69.958c9.737-9.737 12.151-24.602 5.999-36.919l-16.499-33.079v-0.043c-3.075-6.144-1.892-13.568 2.961-18.419l57.54-57.498c14.959-14.963 23.373-35.354 23.373-56.542v-46.46c0-6.046 3.401-11.558 8.836-14.289l6.498-3.209 0.085-0.085c6.14-3.076 13.564-1.852 18.415 2.999l30.835 30.835c43.465 43.473 74.304 97.98 89.207 157.623 0.657 2.624 0.589 5.389-0.252 7.957-0.836 2.569-2.385 4.855-4.459 6.583l-56.789 47.292c-3.486 2.914-8.154 4.19-12.791 3.418h-0.043l-49.916-8.29c-12.553-2.091-25.425-1.178-37.542 2.709-12.122 3.883-23.121 10.624-32.124 19.622h-0.043l-12.582 12.582c-7.424 7.428-13.316 16.26-17.335 25.958-4.015 9.698-6.080 20.090-6.084 30.585zM499.9 543.959c0.004-2.087 0.414-4.154 1.212-6.083 0.802-1.941 2.014-3.723 3.499-5.207l12.582-12.582h-0.043c1.801-1.801 4.036-3.14 6.46-3.917 2.419-0.777 4.992-0.96 7.501-0.542l49.916 8.29c22.916 3.827 46.49-2.458 64.418-17.459h-0.043l56.751-47.249c11.315-9.442 19.725-21.905 24.29-35.917 4.561-14.012 5.086-29.039 1.502-43.332-17.719-70.878-54.349-135.625-106.001-187.294l-30.874-30.831c-24.311-24.311-61.461-30.383-92.254-15.002l-6.583 3.294c-27.14 13.572-44.25 41.246-44.25 71.539v46.46c0 4.233-1.711 8.337-4.663 11.29l-57.502 57.502c-24.326 24.324-30.382 61.53-14.958 92.335l6.208 12.416-53.667 53.666c-42.453 42.449-70.592 97.114-80.458 156.333l-3.25 19.375c-33.269-40.62-57.226-88.361-69.75-139.876-17.312-71.211-11.968-146.057 15.292-214.084 27.264-68.028 75.091-125.867 136.792-165.414s134.221-58.842 207.416-55.211c73.203 3.639 143.479 30.029 200.96 75.503 57.472 45.474 99.324 107.767 119.706 178.167 20.382 70.391 18.287 145.395-5.999 214.54-20.301 57.789-55.3 109.079-101.21 149-16.55-25.541-38.076-47.594-63.539-64.583h-0.043l-31.125-20.708c2.581-9.229 3.209-18.941 1.668-28.5-2.227-13.795-8.747-26.533-18.624-36.417-9.886-9.885-22.66-16.439-36.459-18.667-13.794-2.223-27.93-0.018-40.418 6.25l-25.749 12.875c-2.999 1.501-6.396 2.034-9.711 1.5-3.315-0.536-6.37-2.125-8.747-4.5l-5.542-5.625c-1.485-1.486-2.697-3.267-3.499-5.208-0.802-1.936-1.212-4.031-1.212-6.125z" />
<glyph unicode="&#xe932;" glyph-name="wb-history" d="M107.531 855.557v-131.125c0.007-17.667 14.331-32 32-32h131.125l3.25 0.167c16.136 1.635 28.743 15.268 28.75 31.833 0 16.57-12.611 30.197-28.75 31.834l-3.25 0.166h-66.417c41.654 41.489 99.041 67.121 162.417 67.125h262.25c127.138-0.007 230.199-103.070 230.208-230.208v-262.252c-0.009-127.138-103.070-230.199-230.208-230.208h-262.25c-127.138 0.009-230.201 103.074-230.208 230.208v131.127c0 17.673-14.327 32-32 32s-32-14.327-32-32v-131.127c0.007-162.483 131.725-294.199 294.208-294.208h262.25c162.483 0.009 294.199 131.725 294.208 294.208v262.252c-0.009 162.484-131.725 294.201-294.208 294.208h-262.25c-74.889-0.003-143.215-28.003-195.125-74.042v42.042c0 17.673-14.327 31.999-32 32s-32-14.327-32-32zM465.779 658.891v-196.666c0-8.486 3.375-16.623 9.378-22.626l131.123-131.123c12.497-12.484 32.759-12.493 45.252 0 12.493 12.489 12.48 32.751 0 45.248l-121.754 121.749v183.418c0 17.673-14.323 32-32 32-17.673 0-32-14.327-32-32z" />
<glyph unicode="&#xe933;" glyph-name="wb-layout-2" d="M864 448c0 27.089-0.111 51.887-0.29 74.667h-447.71v-416c0-3.529-0.737-6.869-1.792-10.044 28.872-0.439 61.248-0.623 97.792-0.623 91.401 0 156.757 0.073 206.417 6.75 48.734 6.554 77.53 18.948 98.709 40.124 21.18 21.184 33.57 49.975 40.124 98.709 6.677 49.655 6.75 114.995 6.75 206.417zM512 800c-91.401 0-156.756-0.074-206.417-6.75-48.733-6.553-77.531-18.947-98.708-40.125-21.181-21.181-33.573-49.975-40.125-98.708-2.669-19.854-4.275-42.216-5.25-67.75h700.998c-0.973 25.527-2.581 47.898-5.248 67.75-6.554 48.733-18.948 77.531-40.124 98.708-21.184 21.181-49.975 33.573-98.709 40.125-49.655 6.676-114.995 6.75-206.417 6.75zM160 448c0-91.401 0.074-156.757 6.75-206.417 6.553-48.734 18.947-77.53 40.125-98.709 21.181-21.18 49.975-33.57 98.708-40.124 14.447-1.941 30.225-3.264 47.583-4.25-0.691 2.615-1.167 5.333-1.167 8.166v416h-191.708c-0.182-22.78-0.292-47.578-0.292-74.667zM928 448c0-89.613 0.051-160.047-7.334-214.959-7.505-55.825-23.241-100.365-58.291-135.415-35.055-35.055-79.625-50.786-135.458-58.291-54.912-7.381-125.329-7.334-214.916-7.334-89.613 0-160.048-0.051-214.959 7.334-55.825 7.505-100.366 23.241-135.416 58.291-35.055 35.055-50.786 79.625-58.292 135.458-7.381 54.912-7.334 125.329-7.334 214.916 0 89.613-0.049 160.048 7.334 214.959 7.507 55.825 23.241 100.366 58.292 135.416 35.055 35.055 79.624 50.786 135.458 58.292 54.914 7.381 125.331 7.334 214.917 7.334 89.613 0 160.047 0.049 214.959-7.334 55.825-7.507 100.365-23.241 135.415-58.292 35.055-35.055 50.786-79.624 58.291-135.458 7.381-54.914 7.334-125.331 7.334-214.917z" />
<glyph unicode="&#xe934;" glyph-name="smart-phone" d="M778.709 575.958c0 71.293-0.055 121.548-5.167 159.584-4.992 37.117-14.276 57.775-29.21 72.708s-35.593 24.218-72.708 29.208c-38.037 5.112-88.29 5.167-159.582 5.167s-121.548-0.054-159.584-5.167c-37.117-4.99-57.775-14.276-72.708-29.208s-24.218-35.591-29.208-72.708c-5.112-38.036-5.167-88.291-5.167-159.584v-256.001c0-71.292 0.054-121.545 5.167-159.582 4.99-37.116 14.276-57.775 29.208-72.708s35.591-24.218 72.708-29.21c38.036-5.111 88.293-5.167 159.584-5.167s121.545 0.055 159.582 5.167c37.116 4.992 57.775 14.276 72.708 29.21s24.218 35.593 29.21 72.708c5.111 38.037 5.167 88.29 5.167 159.582v256.001zM842.709 319.957c0-69.491 0.068-124.83-5.751-168.124-5.943-44.215-18.569-80.61-47.373-109.419-28.809-28.804-65.203-41.429-109.419-47.373-43.294-5.82-98.633-5.751-168.124-5.751s-124.832-0.068-168.126 5.751c-44.213 5.943-80.611 18.569-109.417 47.373-28.806 28.809-41.43 65.203-47.375 109.419-5.821 43.294-5.75 98.633-5.75 168.124v256.001c0 69.492-0.071 124.832 5.75 168.125 5.945 44.213 18.569 80.611 47.375 109.417s65.204 41.43 109.417 47.375c43.293 5.821 98.635 5.75 168.126 5.75s124.83 0.071 168.124-5.75c44.215-5.945 80.61-18.569 109.419-47.375 28.804-28.806 41.429-65.204 47.373-109.417 5.82-43.293 5.751-98.633 5.751-168.125v-256.001zM554.709 181.312c17.673 0 32-14.327 32-32s-14.327-32-32-32h-85.333c-17.673 0-32 14.327-32 32s14.327 32 32 32h85.333zM671.646 869.375l-3.831-22.792c-3.985-23.898-7.369-44.662-12.211-61.167-5.077-17.31-12.715-33.571-27.375-46.583-15.172-13.46-32.657-19.121-51.375-21.708-17.643-2.438-39.415-2.5-64.789-2.5s-47.147 0.062-64.794 2.5c-18.718 2.587-36.203 8.248-51.375 21.708-14.66 13.012-22.295 29.273-27.375 46.583-4.842 16.505-8.225 37.268-12.208 61.167l-3.834 22.792 63.167 10.5 3.792-22.792c4.243-25.46 6.997-41.733 10.502-53.667 3.255-11.089 6.153-14.695 8.414-16.708 2.492-2.211 6.391-4.65 17.668-6.208 12.343-1.706 29.201-1.875 56.043-1.875 26.837 0 43.695 0.169 56.038 1.875 11.277 1.558 15.177 3.997 17.668 6.208 2.261 2.013 5.163 5.619 8.418 16.708 3.503 11.934 6.255 28.207 10.5 53.667l3.789 22.792 63.168-10.5z" />
<glyph unicode="&#xe935;" glyph-name="refresh" d="M840.273 724.448c0-38.182-47.262-55.621-72.102-27.096l-0.038-0.076c-65.587 73.277-160.794 119.343-266.803 119.343-197.693 0-357.954-160.261-357.954-357.953s160.261-357.956 357.954-357.956c197.692 0 357.952 160.265 357.952 357.956 0 16.030 12.996 29.022 29.026 29.022 16.026 0 29.022-12.992 29.022-29.022 0-229.751-186.249-416-416-416s-416 186.249-416 416c0 229.75 186.249 415.999 416 415.999 108.271 0 206.912-41.382 280.896-109.139v80.116c0 16.023 13.005 29.014 29.026 29.023 16.030 0 29.022-12.994 29.022-29.023v-121.195z" />
<glyph unicode="&#xe936;" glyph-name="wb-shine" d="M488.461 738.409l11.392-38.705c37.705-128.154 138.53-228.369 267.465-265.848l38.942-11.319-38.942-11.319c-128.934-37.478-229.76-137.69-267.465-265.843l-11.392-38.707-11.388 38.707c-37.705 128.154-138.53 228.365-267.465 265.843l-38.941 11.319 38.941 11.319c128.935 37.478 229.76 137.693 267.465 265.848l11.388 38.705zM723.861 832c18.253-62.036 67.059-110.546 129.472-128.688-62.413-18.142-111.219-66.653-129.472-128.688-18.253 62.036-67.059 110.546-129.472 128.688 62.413 18.142 111.219 66.653 129.472 128.688z" />
<glyph unicode="&#xe937;" glyph-name="wb-spark" d="M530.082 895.167c9.097 10.906 24.307 14.488 37.333 8.833 13.022-5.659 20.757-19.204 18.999-33.292l-38.165-305.375h347.75c12.412 0 23.689-7.182 28.958-18.417 5.265-11.244 3.575-24.544-4.373-34.085l-426.667-512c-9.097-10.906-24.307-14.485-37.333-8.832-13.022 5.658-20.757 19.204-18.999 33.293l38.165 305.374h-347.75c-12.41 0-23.689 7.181-28.958 18.415-5.266 11.247-3.574 24.546 4.375 34.086l426.665 511.999zM196.333 394.667h315.667c9.178 0 17.924-3.951 24-10.833 6.067-6.878 8.883-16.026 7.748-25.126l-29.167-232.998 313.084 375.625h-315.665c-9.178 0-17.924 3.951-24 10.833-6.067 6.878-8.883 16.026-7.748 25.125l29.124 233.042-313.043-375.667z" />
<glyph unicode="&#xe938;" glyph-name="tablet" d="M832.043 618.693c0 61.535-0.081 103.4-4.292 134.75-4.049 30.125-11.213 44.087-20.71 53.583-9.493 9.496-23.458 16.658-53.581 20.708-31.351 4.213-73.216 4.292-134.75 4.292h-213.334c-61.535 0-103.4-0.079-134.75-4.292-30.125-4.050-44.087-11.212-53.583-20.708s-16.658-23.458-20.709-53.583c-4.213-31.35-4.291-73.215-4.291-134.75v-341.334c0-61.534 0.079-103.398 4.291-134.75 4.050-30.123 11.212-44.087 20.709-53.585 9.496-9.493 23.458-16.657 53.583-20.706 31.351-4.211 73.216-4.292 134.75-4.292h213.334c61.534 0 103.398 0.081 134.75 4.292 30.123 4.049 44.087 11.213 53.581 20.706 9.498 9.498 16.661 23.462 20.71 53.585 4.211 31.351 4.292 73.216 4.292 134.75v341.334zM512.499 192.026l4.335-0.209c21.521-2.176 38.332-20.361 38.332-42.458-0.009-22.089-16.815-40.239-38.332-42.415l-4.335-0.252h-0.414c-23.561 0-42.658 19.11-42.667 42.667 0 23.565 19.102 42.667 42.667 42.667h0.414zM917.376 277.359c0-59.127 0.073-107.767-5.086-146.125-5.321-39.586-16.922-74.547-44.915-102.541s-62.955-39.595-102.541-44.919c-38.357-5.154-86.997-5.082-146.125-5.082h-213.334c-59.129 0-107.767-0.073-146.125 5.082-39.587 5.325-74.548 16.926-102.542 44.919s-39.594 62.955-44.916 102.541c-5.156 38.357-5.083 86.997-5.083 146.125v341.334c0 59.129-0.073 107.766 5.083 146.125 5.322 39.587 16.922 74.548 44.916 102.542s62.954 39.594 102.542 44.917c38.359 5.156 86.996 5.083 146.125 5.083h213.334c59.127 0 107.767 0.073 146.125-5.083 39.586-5.323 74.547-16.923 102.541-44.917s39.595-62.954 44.915-102.542c5.158-38.359 5.086-86.996 5.086-146.125v-341.334z" />
<glyph unicode="&#xe939;" glyph-name="wb-text-align-center" d="M725.329 192l3.294-0.166c16.124-1.647 28.706-15.27 28.706-31.834s-12.582-30.187-28.706-31.834l-3.294-0.166h-426.666c-17.673 0-32 14.327-32 32s14.327 32 32 32h426.666zM906.662 480l3.294-0.166c16.124-1.647 28.706-15.27 28.706-31.834s-12.582-30.187-28.706-31.834l-3.294-0.166h-789.333c-17.673 0-32 14.327-32 32s14.327 32 32 32h789.333zM799.996 768l3.294-0.167c16.124-1.648 28.706-15.271 28.706-31.833s-12.582-30.185-28.706-31.833l-3.294-0.167h-576c-17.673 0-32 14.327-32 32s14.327 32 32 32h576z" />
<glyph unicode="&#xe93a;" glyph-name="wb-text-align-left" d="M544 192l3.29-0.166c16.128-1.647 28.71-15.27 28.71-31.834s-12.582-30.187-28.71-31.834l-3.29-0.166h-426.668c-17.673 0-32 14.327-32 32s14.327 32 32 32h426.668zM906.667 480l3.29-0.166c16.128-1.647 28.71-15.27 28.71-31.834s-12.582-30.187-28.71-31.834l-3.29-0.166h-789.335c-17.673 0-32 14.327-32 32s14.327 32 32 32h789.335zM693.333 768l3.29-0.167c16.128-1.648 28.71-15.271 28.71-31.833s-12.582-30.185-28.71-31.833l-3.29-0.167h-576.001c-17.673 0-32 14.327-32 32s14.327 32 32 32h576.001z" />
<glyph unicode="&#xe93b;" glyph-name="wb-text-align-right" d="M906.671 192l3.29-0.166c16.128-1.647 28.71-15.27 28.71-31.834s-12.582-30.187-28.71-31.834l-3.29-0.166h-426.667c-17.677 0-32 14.327-32 32s14.323 32 32 32h426.667zM906.671 480l3.29-0.166c16.128-1.647 28.71-15.27 28.71-31.834s-12.582-30.187-28.71-31.834l-3.29-0.166h-789.335c-17.673 0-32 14.327-32 32s14.327 32 32 32h789.335zM906.671 768l3.29-0.167c16.128-1.648 28.71-15.271 28.71-31.833s-12.582-30.185-28.71-31.833l-3.29-0.167h-576.002c-17.673 0-32 14.327-32 32s14.327 32 32 32h576.002z" />
<glyph unicode="&#xe93c;" glyph-name="wb-typography" d="M320 703.921c11.173 0 22.068-3.427 31.25-9.792 8.79-6.096 15.54-14.644 19.541-24.542h0.084l122.415-287.499c0.102-0.235 0.196-0.474 0.294-0.708l79.872-187.541 1.126-3.085c4.813-15.488-2.799-32.427-18.044-38.916-15.236-6.49-32.708-0.235-40.538 13.956l-1.459 2.961-71.753 168.499h-245.623l-71.709-168.461c-6.923-16.26-25.739-23.838-42-16.913-16.26 6.921-23.84 25.737-16.917 41.997l202.583 475.71c4.001 9.904 10.831 18.443 19.625 24.542l7.167 4.208c7.469 3.65 15.698 5.583 24.083 5.583zM896 365.628c-52.454 8.311-104.35 10.005-143.543-0.247-22.012-5.76-37.756-14.703-47.915-26.125-9.69-10.897-16.666-26.679-16.666-51.294 0-23.407 13.487-46.494 33.583-59.042 19.558-12.169 46.025-13.457 81.417-13.457 36.395 0.004 74.705 21.679 88.751 50.415 1.946 3.964 3.494 9.003 4.373 15.334v84.416zM224.417 401.254h191.125l-95.583 224.416-95.542-224.416zM693.419 492.71l-0.043-0.038-0.043-0.128c-0.026-0.047-0.068-0.094-0.081-0.124 0.026 0.060 0.043 0.183 0.124 0.333l0.043-0.043zM960 187.755c0-17.673-14.327-32-32-32-15.074 0-27.61 10.428-31.002 24.457-28.386-18.611-62.37-28.745-94.123-28.749-32.021 0-77.679-0.286-115.294 23.125-37.585 23.462-63.706 66.466-63.706 113.374 0 37.969 11.302 69.585 32.875 93.833 21.099 23.718 49.596 37.675 79.501 45.5 48.166 12.604 105.711 10.714 159.458 3.004-0.414 10.854-1.348 22.063-3.294 32.623-2.099 11.388-5.077 20.617-8.623 27.541l-3.708 6.165c-16.128 22.17-43.102 45.502-88.166 45.502-39.919-0.005-64.559-13.847-79.125-26.332-7.501-6.43-12.638-12.791-15.795-17.335-1.566-2.261-2.624-4.036-3.209-5.082-0.149-0.269-0.329-0.461-0.414-0.627-7.36-16.060-26.313-23.142-42.377-15.791s-23.138 26.351-15.791 42.415l40.542-18.539c-3.196 1.463-6.959 3.209-11.418 5.248-27.153 12.429-28.971 13.261-29.082 13.333l0.333 0.708c0.149 0.311 0.32 0.691 0.542 1.126 0.444 0.879 1.045 1.997 1.792 3.332 1.493 2.679 3.639 6.259 6.498 10.376 5.7 8.211 14.383 18.847 26.709 29.417 25.118 21.533 64.265 41.745 120.794 41.75 71.753 0 115.934-38.876 139.913-71.834 13.218-18.144 19.878-40.13 23.501-59.791 3.695-20.045 4.668-40.333 4.668-57.041v-229.709z" />
<glyph unicode="&#xe93d;" glyph-name="wb-vertical-menu" d="M511.701 245.333c29.453 0 53.333-23.876 53.333-53.333s-23.881-53.333-53.333-53.333h-0.375c-29.457 0-53.333 23.876-53.333 53.333s23.876 53.333 53.333 53.333h0.375zM512.034 501.333c29.453 0 53.333-23.876 53.333-53.333s-23.881-53.333-53.333-53.333h-0.375c-29.457 0-53.333 23.876-53.333 53.333s23.876 53.333 53.333 53.333h0.375zM512.367 757.333c29.457 0 53.333-23.878 53.333-53.333s-23.876-53.333-53.333-53.333h-0.375c-29.453 0-53.333 23.878-53.333 53.333s23.881 53.333 53.333 53.333h0.375z" />
</font>
</defs>
</svg>
